<?xml version="1.0" standalone="no"?>
<!DOCTYPE svg PUBLIC "-//W3C//DTD SVG 1.1//EN" "http://www.w3.org/Graphics/SVG/1.1/DTD/svg11.dtd" >
<svg xmlns="http://www.w3.org/2000/svg" xmlns:xlink="http://www.w3.org/1999/xlink" version="1.1">
<metadata>
Created by FontForge 20201107 at Mon Sep 26 16:31:39 2016
 By Unknown
Copyright (c) 2011 Juan Montoreano (juan@remolacha.biz), with Reserved Font Name Lilita regular
</metadata>
<defs>
<font id="Lilita2" horiz-adv-x="655" >
  <font-face 
    font-family="Lilita 2"
    font-weight="400"
    font-stretch="normal"
    units-per-em="1000"
    panose-1="2 0 0 0 0 0 0 0 0 0"
    ascent="800"
    descent="-200"
    x-height="500"
    cap-height="700"
    bbox="-118 -220 1068 923"
    underline-thickness="50"
    underline-position="-150"
    unicode-range="U+0020-FB02"
  />
<missing-glyph horiz-adv-x="199" 
 />
    <glyph glyph-name=".notdef" horiz-adv-x="199" 
 />
    <glyph glyph-name=".null" horiz-adv-x="0" 
 />
    <glyph glyph-name="nonmarkingreturn" horiz-adv-x="333" 
 />
    <glyph glyph-name="space" unicode=" " horiz-adv-x="188" 
 />
    <glyph glyph-name="exclam" unicode="!" horiz-adv-x="287" 
d="M230 703l-20 -493q0 -3 -36 -5t-71.5 -1t-35.5 5l-20 493q0 5 45.5 7t91.5 0.5t46 -6.5zM230 151v-144q0 -6 -46 -8.5t-92.5 -1t-46.5 5.5v147q0 4 46.5 6t92.5 0.5t46 -5.5z" />
    <glyph glyph-name="quotedbl" unicode="&#x22;" horiz-adv-x="460" 
d="M208 663v-211q0 -18 -28 -26t-56.5 0t-28.5 26l-30 211q0 18 35.5 26t71.5 0t36 -26zM398 663l-30 -211q0 -18 -28 -26t-56.5 0t-28.5 26v211q0 18 35.5 26t71.5 0t36 -26z" />
    <glyph glyph-name="numbersign" unicode="#" horiz-adv-x="833" 
d="M596 300h108q18 0 26.5 -29t1.5 -58t-26 -29l-150 -1l-57 -169q-4 -11 -18 -14t-31 1.5t-32.5 12t-24 19t-3.5 22.5l43 128h-116l-57 -168q-4 -11 -18 -13.5t-31 2t-32.5 12t-24 19t-3.5 22.5l42 126h-75q-11 0 -18.5 12t-8.5 29.5t1.5 35t11 29t19.5 10.5h110l35 104
h-114q-11 0 -18.5 12t-8.5 29.5t1.5 35t11 29t19.5 10.5h148l50 147q4 11 18 14.5t31 -0.5t33 -11t25 -17.5t5 -20.5l-38 -112h116l49 146q4 11 18 14t31 -0.5t33 -10.5t25 -18t5 -21l-37 -109h69q18 0 26.5 -29t1.5 -58t-26 -29h-111zM384 412l-41 -122h136l41 122h-136z
" />
    <glyph glyph-name="dollar" unicode="$" horiz-adv-x="531" 
d="M303 767v-57q74 -3 128 -20.5t54 -52.5q0 -31 -20.5 -82t-28.5 -54q-84 35 -133 39v-113q210 -8 210 -202q0 -91 -52 -156t-158 -76v-69q0 -18 -14 -26t-28 0t-14 26v66q-84 2 -148.5 30t-64.5 71q0 15 2.5 30t6 27t8 23t9 19t8 14t6.5 10l2 3q28 -17 48 -25
q63 -26 123 -30v110q-213 13 -213 218q0 90 57 148t156 70v59q0 18 14 26t28 0t14 -26zM374 230q0 23 -15.5 31.5t-55.5 10.5v-108q71 12 71 66zM186 479q0 -42 61 -49v109q-61 -10 -61 -60z" />
    <glyph glyph-name="uni0025" unicode="%" horiz-adv-x="798" 
d="M340 518q0 -94 -42.5 -143t-107.5 -49q-69 0 -112 47.5t-43 144.5q0 96 42 144.5t111 48.5q66 0 109 -49t43 -144zM235 519q0 65 -47 65t-47 -65q0 -31 13 -47t34 -16t34 16t13 47zM753 184q0 -94 -42.5 -143t-107.5 -49q-69 0 -112 47.5t-43 144.5q0 96 42 144.5
t111 48.5q66 0 109 -49t43 -144zM648 185q0 65 -47 65t-47 -65q0 -31 13 -47t34 -16t34 16t13 47zM103 66l475 636q15 13 40.5 4t45 -33t8.5 -39l-475 -636q-15 -13 -40.5 -3.5t-45 33t-8.5 38.5z" />
    <glyph glyph-name="ampersand" unicode="&#x26;" horiz-adv-x="667" 
d="M398 422l196 25q20 2 27 -24t2 -61t-17 -63l-102 -12q26 -63 26 -114q0 -79 -60.5 -131t-181.5 -52q-110 0 -177 56.5t-67 145.5q0 88 85 151q-63 70 -63 157q0 97 64 153.5t167 56.5q101 0 160.5 -50t59.5 -135q0 -17 -32.5 -33t-76.5 -16q-12 0 -22.5 1.5t-17 3
t-11.5 3.5t-7 4l-1 1q0 1 0.5 4.5t0.5 5.5q0 25 -16.5 40t-38.5 15q-26 0 -42 -16t-16 -44q0 -93 161 -72zM239 285q-20 -52 -4 -91t64 -39q34 0 51.5 27.5t12.5 81.5q0 3 -0.5 7t-0.5 6q-85 -15 -123 8z" />
    <glyph glyph-name="quotesingle" unicode="'" horiz-adv-x="301" 
d="M223 663l-20 -211q0 -18 -28.5 -26t-56.5 0t-28 26l-20 211q0 18 38 26t76.5 0t38.5 -26z" />
    <glyph glyph-name="parenleft" unicode="(" horiz-adv-x="430" 
d="M190 676q6 11 17.5 16t25 4t29 -4t29.5 -8.5t25.5 -10t17.5 -8.5l7 -4q-48 -106 -71.5 -183t-23.5 -167q1 -173 98 -339q-2 -2 -13.5 -9.5t-32.5 -17t-41.5 -15.5t-40.5 0t-30 26q-91 184 -91 373q0 173 95 347z" />
    <glyph glyph-name="parenright" unicode=")" horiz-adv-x="422" 
d="M249 676q95 -174 95 -347q0 -189 -91 -373q-10 -20 -30 -26t-40.5 0t-41.5 15.5t-32.5 17t-13.5 9.5q97 166 98 339q0 90 -23.5 167t-71.5 183q0 2 33 16t66.5 19t51.5 -20z" />
    <glyph glyph-name="asterisk" unicode="*" horiz-adv-x="557" 
d="M330 668l-4 -119q100 19 127 23q15 1 26 -20t8 -43.5t-22 -24.5l-115 -14l74 -114q5 -12 1 -23t-16.5 -18.5t-25.5 -12t-25 -3t-16 9.5l-59 113l-54 -113q-9 -11 -31.5 -6.5t-40.5 23t-8 33.5l70 111q-83 11 -115 14q-19 1 -22 24t8.5 44t26.5 20q25 -4 68 -12.5
t56 -10.5l-4 119q-1 17 23 24.5t47.5 0t22.5 -24.5z" />
    <glyph glyph-name="plus" unicode="+" horiz-adv-x="602" 
d="M353 574v-168h169q18 0 26 -29t0 -58t-26 -29h-169v-171q0 -18 -29 -26t-58 0t-29 26v171h-170q-18 0 -26 29t0 58t26 29h170v168q0 18 29 26t58 0t29 -26z" />
    <glyph glyph-name="comma" unicode="," horiz-adv-x="305" 
d="M55 -67l61 124l4 91q7 18 85.5 16t78.5 -21l-2 -85l-58 -136q-13 -28 -82 -29q-65 0 -84 22q-6 9 -3 18z" />
    <glyph glyph-name="hyphen" unicode="-" horiz-adv-x="525" 
d="M460 190h-395q-18 0 -26 29t0 58t26 29h395q18 0 26 -29t0 -58t-26 -29z" />
    <glyph glyph-name="period" unicode="." horiz-adv-x="229" 
d="M35 4v150q0 5 39.5 7t79 1t39.5 -4v-153q0 -3 -39.5 -4.5t-79 -0.5t-39.5 4z" />
    <glyph glyph-name="slash" unicode="/" horiz-adv-x="573" 
d="M3 -36l467 811q5 10 19 10.5t30 -6.5t29.5 -17t20 -23t1.5 -23l-467 -811q-6 -9 -20.5 -9.5t-30 6.5t-29.5 17t-20 22.5t0 22.5z" />
    <glyph glyph-name="zero" unicode="0" horiz-adv-x="639" 
d="M35 349q0 179 80 269.5t203 90.5q130 0 208 -90t78 -270q0 -182 -79.5 -270.5t-209.5 -88.5q-121 0 -200.5 92t-79.5 267zM228 349q0 -79 25.5 -121.5t65.5 -42.5q41 0 66.5 43t25.5 121q0 82 -26.5 125t-65.5 43q-38 0 -64.5 -43.5t-26.5 -124.5z" />
    <glyph glyph-name="one" unicode="1" horiz-adv-x="406" 
d="M356 674v-657q0 -16 -101.5 -17t-101.5 17v493l-108 -1q-30 0 -30 96q0 33 6.5 64t22.5 31h274q17 0 27.5 -7.5t10.5 -18.5z" />
    <glyph glyph-name="two" unicode="2" horiz-adv-x="525" 
d="M433 0h-332q-35 0 -48.5 68.5t-1.5 80.5q224 231 224 314q0 28 -14.5 42t-52.5 14q-25 0 -56.5 -12t-49.5 -26l-4 5q-5 6 -11 15t-13.5 21.5t-14 27t-11 30t-5 30.5t4.5 29q8 26 74.5 49t140.5 23q224 0 224 -199q0 -88 -60 -178.5t-140 -156.5l202 8q5 -53 5 -90
q0 -41 -16 -68t-45 -27z" />
    <glyph glyph-name="three" unicode="3" horiz-adv-x="528" 
d="M20 66q0 28 14 63.5t27 57t15 21.5q58 -35 122 -35q40 0 64.5 16t24.5 48q0 25 -22.5 33t-71.5 11h-36q-12 0 -22.5 29.5t-10.5 57.5q0 47 28 48l29 1q27 0 56.5 15.5t29.5 39.5q0 42 -75 42q-56 0 -108 -22q-45 81 -45 130q0 42 63.5 65t146.5 23q109 0 163 -40t54 -109
q0 -121 -104 -186q126 -51 126 -173q0 -95 -67 -153.5t-192 -58.5q-79 0 -144 22.5t-65 53.5z" />
    <glyph glyph-name="four" unicode="4" horiz-adv-x="598" 
d="M277 20v124h-199q-26 26 -52 77.5t-10 79.5l219 388q4 8 65 12t120.5 3.5t59.5 -4.5l1 -401h66q11 0 10 -75.5t-10 -75.5l-66 -1v-126q0 -11 -51 -17t-102 -2t-51 18zM189 298h117v209z" />
    <glyph glyph-name="five" unicode="5" horiz-adv-x="524" 
d="M52 22q-15 24 -2 106q11 66 25 63l5 -4q71 -29 113 -29q33 0 57.5 20.5t24.5 52.5q0 80 -86 80l-86 -1q-10 -2 -20 8.5t-10 27.5v313q0 41 30 41h324q13 0 17 -45t-1.5 -90t-17.5 -45h-195l-1 -73h33q107 0 159.5 -62t52.5 -161q0 -105 -72 -169.5t-194 -64.5
q-104 0 -156 32z" />
    <glyph glyph-name="six" unicode="6" horiz-adv-x="575" 
d="M334 530q-93 0 -106 -120q52 15 111 15q101 0 148.5 -52.5t47.5 -143.5q0 -110 -68 -174.5t-180 -64.5q-120 0 -186 84.5t-66 240.5q0 182 82.5 288.5t214.5 106.5q150 0 150 -61q0 -44 -28 -94q-10 -22 -27 -47q-11 6 -25 11q-35 11 -68 11zM362 228q0 31 -19 50.5
t-52 19.5q-44 0 -64 -14q-3 -33 1.5 -62.5t21 -52t43.5 -22.5q69 0 69 81z" />
    <glyph glyph-name="seven" unicode="7" horiz-adv-x="500" 
d="M485 608l-172 -595q-5 -16 -107 -16q-100 0 -112 9q-4 3 -4 7l167 490h-203q-30 0 -30 97q0 33 6.5 64t22.5 31l350 1q40 0 65 -44q12 -22 17 -44z" />
    <glyph glyph-name="eight" unicode="8" horiz-adv-x="570" 
d="M509 526q-1 -71 -65 -133q41 -30 67.5 -77.5t26.5 -104.5q0 -98 -70.5 -160t-181.5 -62q-124 0 -191.5 59.5t-67.5 152.5q0 100 97 175q-68 59 -68 144q0 81 65 135t166 54t161.5 -50.5t60.5 -132.5zM225 220q0 -29 17.5 -46.5t44.5 -17.5q25 0 41.5 17.5t16.5 46.5
q0 54 -69 89q-51 -31 -51 -89zM230 506q0 -45 69 -85q34 38 34 82q0 22 -15.5 37t-34.5 15q-51 0 -53 -49z" />
    <glyph glyph-name="nine" unicode="9" horiz-adv-x="565" 
d="M228 159q45 0 75.5 24t35.5 75q-50 -14 -80 -14q-105 0 -162 58.5t-57 157.5q0 116 65.5 183t172.5 67q121 0 186.5 -80t65.5 -236q0 -195 -69.5 -299.5t-206.5 -104.5q-170 0 -170 57q0 30 12 78.5t26 48.5l40 -8q40 -7 66 -7zM216 456q0 -31 20.5 -50.5t50.5 -19.5
q34 0 54 14q0 69 -13 99.5t-46 30.5q-31 0 -48.5 -20.5t-17.5 -53.5z" />
    <glyph glyph-name="colon" unicode=":" horiz-adv-x="277" 
d="M58 -4v180q0 6 47 8t94.5 0.5t47.5 -4.5v-183q0 -4 -47.5 -6t-94.5 -0.5t-47 5.5zM58 317v180q0 6 47 8t94.5 0.5t47.5 -4.5v-183q0 -4 -47.5 -6t-94.5 -0.5t-47 5.5z" />
    <glyph glyph-name="semicolon" unicode=";" horiz-adv-x="277" 
d="M15 -67l63 124v91q6 17 88 15q75 0 81 -20v-85l-63 -136q-13 -28 -82 -29q-65 0 -84 22q-6 9 -3 18zM58 317v180q0 6 47 8t94.5 0.5t47.5 -4.5v-183q0 -4 -47.5 -6t-94.5 -0.5t-47 5.5z" />
    <glyph glyph-name="less" unicode="&#x3c;" horiz-adv-x="484" 
d="M62 354l232 277q13 13 42 0t46.5 -36t3.5 -36l-202 -224l205 -211q13 -13 -4.5 -36.5t-46 -36t-41.5 0.5l-231 256q-25 25 -4 46z" />
    <glyph glyph-name="equal" unicode="=" horiz-adv-x="580" 
d="M492 160h-395q-18 0 -26 29t0 58t26 29h395q18 0 26 -29t0 -58t-26 -29zM492 384h-395q-18 0 -26 29t0 58t26 29h395q18 0 26 -29t0 -58t-26 -29z" />
    <glyph glyph-name="greater" unicode="&#x3e;" horiz-adv-x="450" 
d="M153 631l232 -277q21 -21 -4 -46l-231 -256q-13 -13 -42 -0.5t-46.5 36t-3.5 36.5l205 211l-202 224q-14 13 3.5 36t46 35.5t42.5 0.5z" />
    <glyph glyph-name="question" unicode="?" horiz-adv-x="584" 
d="M331 251v-30q0 -12 -45.5 -19t-91.5 -3t-46 18v38q0 26 23.5 57.5t51.5 57.5t51.5 59t23.5 60q0 50 -57 50q-58 0 -116 -38l-5 5q-4 4 -10 12t-13.5 19t-14 23.5t-11 26.5t-5 27t4.5 25q8 26 74.5 49t140.5 23q112 0 168 -48t56 -131q0 -38 -18.5 -74.5t-45 -64
t-52.5 -52t-44.5 -48t-18.5 -42.5zM160 -5v157q0 5 41 7t82.5 0.5t41.5 -4.5v-159q0 -3 -41 -5t-82.5 -0.5t-41.5 4.5z" />
    <glyph glyph-name="at" unicode="@" horiz-adv-x="867" 
d="M577 37q5 -5 15 -19q15 -26 15 -47q0 -59 -198 -59q-171 0 -270.5 88.5t-99.5 251.5q0 189 116.5 304.5t306.5 115.5q147 0 236 -87t89 -227q0 -124 -61.5 -189t-150.5 -65q-31 0 -60.5 13t-43.5 29q-47 -41 -116 -41q-60 0 -94.5 34t-34.5 103q0 109 77 184t171 75
q23 0 38 -1.5t32.5 -8t26.5 -22t9 -39.5q0 -11 -28 -214l42 -2q7 0 14.5 2.5t18.5 12t19.5 24.5t14.5 43.5t6 65.5q0 96 -58 152.5t-153 56.5q-141 0 -223.5 -87t-82.5 -227q0 -238 285 -238q88 0 142 18zM426 225l20 143q2 15 -11 15q-22 0 -44.5 -39t-24.5 -91
q0 -37 33 -37q19 0 27 9z" />
    <glyph glyph-name="A" unicode="A" 
d="M466 691l173 -678q0 -3 -17.5 -6.5t-46 -6t-55.5 -2.5q-87 0 -94 28l-33 129h-159l-29 -124q-6 -31 -96 -31q-24 0 -46.5 2.5t-35 5.5t-12.5 6l177 677q0 8 119 8q155 0 155 -8zM259 282h105l-45 207h-6z" />
    <glyph glyph-name="B" unicode="B" horiz-adv-x="594" 
d="M541 519q0 -104 -90 -158q49 -18 82 -62t33 -118q0 -87 -59.5 -134t-170.5 -47h-236q-17 0 -28 11.5t-11 30.5v640q0 11 3.5 14.5t14.5 3.5h228q234 0 234 -181zM253 538v-131h5q96 0 96 64q0 35 -18.5 51t-61.5 16h-21zM253 289v-130h18q43 0 63 16t20 53q0 33 -18.5 47
t-61.5 14h-21z" />
    <glyph glyph-name="C" unicode="C" horiz-adv-x="561" 
d="M520 634q0 -36 -29.5 -93.5t-50.5 -42.5q-9 8 -32.5 14.5t-40.5 6.5q-58 0 -93.5 -41t-35.5 -125q0 -85 36.5 -126t92.5 -41q23 0 51.5 6.5t40.5 18.5q10 8 28.5 -17.5t32.5 -62t14 -56.5q0 -39 -60 -62t-142 -23q-132 0 -217 93t-85 264q0 168 87.5 265t218.5 97
q73 0 128.5 -20.5t55.5 -54.5z" />
    <glyph glyph-name="D" unicode="D" horiz-adv-x="616" 
d="M50 46v600q0 25 12.5 39.5t32.5 14.5h167q159 0 241.5 -80t82.5 -252q0 -368 -314 -368h-171q-51 0 -51 46zM242 510v-299q0 -21 3 -26.5t18 -5.5q55 0 83.5 41t28.5 148q0 84 -29.5 113t-93.5 29h-10z" />
    <glyph glyph-name="E" unicode="E" horiz-adv-x="493" 
d="M430 0h-342q-38 0 -38 31v643q0 26 23 26h358q22 0 21 -88.5t-21 -88.5h-185v-101h129q12 0 16.5 -37t-1 -74t-17.5 -37h-127v-100h184q17 0 23 -43.5t-1.5 -87t-21.5 -43.5z" />
    <glyph glyph-name="F" unicode="F" horiz-adv-x="472" 
d="M241 409h122q11 0 15 -38.5t0 -77.5t-14 -39h-123v-241q0 -14 -49 -20t-98 -0.5t-49 19.5v662q0 16 6.5 21t19.5 5h353q16 0 17 -88.5t-17 -88.5h-183v-114z" />
    <glyph glyph-name="G" unicode="G" horiz-adv-x="621" 
d="M562 659q4 -43 -12.5 -88t-39 -68.5t-36.5 -13.5q-15 12 -43 20.5t-54 8.5q-62 0 -100.5 -40t-38.5 -117q0 -91 39.5 -134.5t94.5 -43.5q48 0 48 26q0 24 1 78t1 58q0 14 38.5 20t77 0t38.5 -21l-4 -313q-20 -14 -80.5 -27.5t-138.5 -13.5q-145 0 -234 94t-89 276
q0 155 87 252t241 97q70 0 126.5 -13.5t77.5 -36.5z" />
    <glyph glyph-name="H" unicode="H" horiz-adv-x="644" 
d="M392 17v230h-140v-230q0 -16 -101 -17t-101 17v663q0 21 101 21t101 -21v-235h140v233q0 14 50.5 19.5t101 0t50.5 -19.5v-661q0 -16 -101 -16.5t-101 16.5z" />
    <glyph glyph-name="I" unicode="I" horiz-adv-x="429" 
d="M116 172v356h-71q-17 0 -24 43t0 86t24 43h336q17 0 23.5 -43t0 -86t-23.5 -43h-67v-356h70q17 0 24 -43t0 -86t-24 -43h-337q-17 0 -23.5 43t0 86t23.5 43h69z" />
    <glyph glyph-name="J" unicode="J" horiz-adv-x="462" 
d="M9 90q0 29 17 67.5t37 52.5q54 -39 108 -23t56 86v255h-80q-17 0 -24 43t0 86t24 43h238q20 0 30 -11.5t10 -27.5v-472q0 -98 -65.5 -149t-165.5 -51q-83 0 -134 27t-51 74z" />
    <glyph glyph-name="K" unicode="K" horiz-adv-x="620" 
d="M50 16v671q0 17 100 17t100 -17v-256l122 256q9 17 110 13q104 -3 110 -22q0 -2 -1 -4l-174 -314l202 -279q0 -2 -18.5 -17.5t-47.5 -33t-60.5 -29.5t-63 -4.5t-49.5 40.5l-114 218h-16v-241q0 -10 -50 -13.5t-100 1t-50 14.5z" />
    <glyph glyph-name="L" unicode="L" horiz-adv-x="435" 
d="M40 59v622q0 21 101.5 21t101.5 -21v-490h154q18 0 25 -47.5t-0.5 -95.5t-25.5 -48h-308q-22 0 -35 18t-13 41z" />
    <glyph glyph-name="M" unicode="M" horiz-adv-x="907" 
d="M661 19l-21 401l-122 -406q-4 -11 -68 -11.5t-66 10.5l-126 411l-14 -399q-1 -15 -50 -22t-97 -0.5t-47 24.5l23 650q0 16 64.5 21.5t131 -1.5t72.5 -23l112 -315l98 316q6 17 75 23t136 -1t67 -21l29 -656q0 -11 -49 -17t-98.5 -2t-49.5 18z" />
    <glyph glyph-name="N" unicode="N" horiz-adv-x="648" 
d="M402 16l-167 312v-311q0 -18 -92.5 -18t-92.5 18v669q0 10 46 13.5t96.5 -3t59.5 -21.5l160 -308v314q0 18 93 19t93 -19v-659q0 -20 -93.5 -21t-102.5 15z" />
    <glyph glyph-name="O" unicode="O" horiz-adv-x="696" 
d="M30 349q0 178 89.5 269t226.5 91q146 0 233 -89.5t87 -270.5q0 -182 -89 -270.5t-234 -88.5q-136 0 -224.5 92t-88.5 267zM235 349q0 -79 31 -121.5t82 -42.5q50 0 81.5 43t31.5 121q0 82 -32.5 125t-80.5 43t-80.5 -44t-32.5 -124z" />
    <glyph glyph-name="P" unicode="P" horiz-adv-x="570" 
d="M532 462q0 -48 -15 -91.5t-46.5 -84t-91.5 -64.5t-140 -24v-179q0 -12 -48.5 -17.5t-96.5 -1t-48 17.5v648q0 34 31 34h176q148 0 213.5 -61t65.5 -177zM239 526v-158h13q35 0 59 22t24 62t-16.5 57t-58.5 17h-21z" />
    <glyph glyph-name="Q" unicode="Q" horiz-adv-x="706" 
d="M30 349q0 178 89.5 269t226.5 91q146 0 233 -89.5t87 -270.5q0 -139 -54 -224t-148 -117l106 -73q16 -12 -11.5 -47.5t-70 -56.5t-62.5 1l-146 162q-112 21 -181 112.5t-69 242.5zM235 349q0 -79 31 -121.5t82 -42.5q50 0 81.5 43t31.5 121q0 82 -32.5 125t-80.5 43
t-80.5 -44t-32.5 -124z" />
    <glyph glyph-name="R" unicode="R" horiz-adv-x="590" 
d="M541 495q0 -62 -24 -112.5t-68 -80.5l126 -210q-8 -24 -52 -55t-88.5 -40.5t-68.5 25.5l-94 219h-31v-227q0 -10 -47.5 -14t-95.5 0t-48 13v652q0 35 37 35h191q263 0 263 -205zM241 523v-150h5q95 0 95 79q0 36 -18.5 53.5t-60.5 17.5h-21z" />
    <glyph glyph-name="S" unicode="S" horiz-adv-x="531" 
d="M76 244q19 -15 52 -34q60 -33 104 -33q41 0 41 33q0 15 -12 26.5t-48 28.5q-28 13 -44 21.5t-42.5 28t-41 40.5t-26.5 55.5t-13 76.5q-2 99 64.5 160.5t172.5 61.5q72 0 133 -15.5t63 -40.5q2 -37 -21 -92.5t-32 -61.5q-64 33 -118 33q-47 0 -47 -36q0 -8 4.5 -15
t14 -13.5t18 -10.5t23.5 -11t22 -11q32 -15 54.5 -29.5t48 -38.5t39.5 -57.5t14 -74.5q0 -107 -59 -175t-182 -70q-60 0 -108.5 10t-84.5 39t-36 73q0 38 15 78.5t32 53.5z" />
    <glyph glyph-name="T" unicode="T" horiz-adv-x="502" 
d="M351 518v-502q0 -19 -99 -20t-99 20v502h-120q-17 0 -24 45.5t0 91t24 45.5h435q17 0 23.5 -45.5t0 -91t-23.5 -45.5h-117z" />
    <glyph glyph-name="U" unicode="U" horiz-adv-x="628" 
d="M311 -10q-120 0 -200.5 66.5t-80.5 179.5v443q0 21 108.5 20t108.5 -20v-451q0 -20 20.5 -31.5t44.5 -12.5t44.5 10.5t20.5 33.5v452q0 21 108.5 19.5t108.5 -19.5v-459q0 -102 -73 -166.5t-210 -64.5z" />
    <glyph glyph-name="V" unicode="V" horiz-adv-x="661" 
d="M186 21l-175 666q0 5 56 11t113.5 1t61.5 -27l86 -440l81 440q4 21 64 26.5t118.5 0t58.5 -10.5l-177 -662q-4 -16 -74 -23t-139.5 -1.5t-73.5 19.5z" />
    <glyph glyph-name="W" unicode="W" horiz-adv-x="953" 
d="M538 25l-68 275l-74 -274q-4 -18 -70 -25.5t-132 -0.5t-70 25l-103 665q-2 7 52 10t109.5 -1.5t57.5 -16.5l49 -421l106 426q5 14 78 15t78 -14l104 -429l58 425q2 11 57.5 16t109.5 1.5t52 -12.5l-121 -663q-4 -15 -70 -23.5t-132.5 -3t-70.5 25.5z" />
    <glyph glyph-name="X" unicode="X" horiz-adv-x="683" 
d="M273 668l69 -168l79 173q9 23 69 28t115 -1t55 -10l-170 -346l176 -331q3 -5 -58.5 -11t-127 0t-74.5 31l-75 191l-68 -197q-7 -20 -68 -25.5t-118 0t-53 12.5l156 346l-162 330q-3 5 57 11t124.5 -0.5t73.5 -32.5z" />
    <glyph glyph-name="Y" unicode="Y" horiz-adv-x="615" 
d="M241 667l73 -204l84 204q9 25 68 31.5t113.5 1t51.5 -11.5l-208 -418v-244q0 -17 -54.5 -24.5t-109.5 -0.5t-55 25v238l-215 422q-4 6 55 13t123.5 0.5t73.5 -32.5z" />
    <glyph glyph-name="Z" unicode="Z" horiz-adv-x="563" 
d="M41 155l234 363h-199q-17 0 -24 45.5t2 91t30 45.5h370q61 0 79 -111q4 -24 4 -35l-234 -355h183q24 2 33 -48t-2 -100.5t-34 -50.5h-389q-9 0 -36.5 70.5t-16.5 84.5z" />
    <glyph glyph-name="bracketleft" unicode="[" horiz-adv-x="385" 
d="M109 798h216q18 0 26 -29t0 -58t-26 -29h-129v-682h129q18 0 26 -29t0 -58t-26 -29h-216q-29 0 -29 29v856q0 29 29 29z" />
    <glyph glyph-name="backslash" unicode="\" horiz-adv-x="587" 
d="M120 775l467 -811q5 -10 -1.5 -23t-20 -23t-29.5 -17t-30 -6.5t-19 10.5l-467 811q-6 10 0 22.5t20 22.5t29.5 17t30 6.5t20.5 -9.5z" />
    <glyph glyph-name="bracketright" unicode="]" horiz-adv-x="385" 
d="M60 798h216q29 0 29 -29v-856q0 -29 -29 -29h-216q-18 0 -26 29t0 58t26 29h129v682h-129q-18 0 -26 29t0 58t26 29z" />
    <glyph glyph-name="asciicircum" unicode="^" horiz-adv-x="687" 
d="M353 679l277 -232q12 -14 -0.5 -42.5t-35.5 -46t-36 -3.5l-224 202l-211 -205q-13 -14 -36.5 3.5t-36 46.5t0.5 42l256 231q25 25 46 4z" />
    <glyph glyph-name="underscore" unicode="_" horiz-adv-x="636" 
d="M552 -150h-475q-18 0 -26 29t0 58t26 29h475q18 0 26 -29t0 -58t-26 -29z" />
    <glyph glyph-name="grave" unicode="`" horiz-adv-x="350" 
d="M247 530l-171 75q-8 8 -2.5 33.5t22 51t27.5 20.5l162 -89q9 -8 5 -30t-18.5 -43.5t-24.5 -17.5z" />
    <glyph glyph-name="a" unicode="a" horiz-adv-x="517" 
d="M435 168h34q17 0 26.5 -20t9.5 -49q0 -41 -17.5 -75t-47.5 -34q-54 0 -87 29q-15 12 -23 29q-46 -58 -143 -58q-73 0 -123 52t-50 123q0 163 195 163h55v10q0 26 -8.5 33.5t-33.5 7.5q-37 0 -79 -8l-35 -8q-9 16 -14 30q-14 34 -14 59q0 24 17 33q57 25 163 25
q93 0 134 -46.5t41 -137.5v-158zM188 179q0 -22 12 -33.5t30 -11.5q19 0 34 15v77h-28q-48 0 -48 -47z" />
    <glyph glyph-name="b" unicode="b" horiz-adv-x="520" 
d="M284 510q210 0 210 -241q0 -134 -64.5 -206.5t-179.5 -72.5q-122 0 -200 53v654q0 8 43 11t86.5 -0.5t43.5 -11.5v-194q43 8 61 8zM312 251q0 33 -6 56t-16 33t-22 13t-23.5 0t-21.5 -10v-191q33 -15 61 5.5t28 93.5z" />
    <glyph glyph-name="c" unicode="c" horiz-adv-x="424" 
d="M209 248q0 -98 74 -98q48 0 80 19q15 0 27 -66.5t2 -79.5q-53 -33 -144 -33q-93 0 -157.5 68.5t-64.5 188.5q0 117 63.5 190t163.5 73q111 0 152 -51q18 -21 0.5 -85t-46.5 -74q-15 -5 -30 11q-39 39 -62 39q-24 0 -41 -24t-17 -78z" />
    <glyph glyph-name="d" unicode="d" horiz-adv-x="565" 
d="M475 169h35q25 0 33 -45t-12 -89.5t-64 -44.5q-33 0 -58.5 13t-34.5 27l-9 13q-55 -53 -137 -53q-84 0 -143 69t-59 194q0 122 62 189.5t155 67.5q14 0 41 -3l14 -3v190q0 11 44 14t88.5 -1.5t44.5 -10.5v-527zM209 249q0 -51 16.5 -74t36.5 -21.5t36 16.5v170
q-15 9 -29.5 10t-28.5 -6.5t-22.5 -32t-8.5 -62.5z" />
    <glyph glyph-name="e" unicode="e" horiz-adv-x="486" 
d="M423 27q-63 -37 -164 -37q-97 0 -165 67.5t-68 190.5q0 116 65.5 189t168.5 73q97 0 151.5 -51t54.5 -124q0 -162 -186 -162h-69q0 -30 16.5 -41.5t48.5 -11.5q70 0 133 32q1 1 9 -13.5t16 -37t8 -39.5q0 -26 -19 -35zM298 316q0 42 -41 42q-19 0 -32.5 -11.5
t-13.5 -33.5v-31h54q33 0 33 34z" />
    <glyph glyph-name="f" unicode="f" horiz-adv-x="375" 
d="M84 367h-49q-15 0 -15 66.5t15 66.5h49v22q0 106 44.5 146.5t130.5 40.5q74 0 135 -29q8 -3 8 -19q0 -21 -17 -62t-29 -47q-34 21 -70 21q-39 0 -39 -52v-21h83q11 0 15.5 -33.5t-1 -67t-19.5 -33.5h-64v-354q0 -12 -88.5 -12t-88.5 12v355z" />
    <glyph glyph-name="g" unicode="g" horiz-adv-x="516" 
d="M229 0q-97 0 -150 62.5t-53 178.5q0 129 69.5 198.5t179.5 69.5q121 0 196 -51v-498q0 -74 -60 -113.5t-153 -39.5q-95 0 -169 24q-13 30 -9.5 71.5t20.5 65.5q67 -29 143 -29q55 0 55 39v30q-43 -8 -69 -8zM208 245q0 -63 25.5 -82t64.5 -10v190q-39 10 -64.5 -11.5
t-25.5 -86.5z" />
    <glyph glyph-name="h" unicode="h" horiz-adv-x="501" 
d="M45 12v685q0 7 41.5 11t83.5 0t42 -16v-200q56 17 85 17q76 0 120 -40.5t44 -150.5v-310q0 -6 -41.5 -8t-83 0.5t-41.5 8.5v294q0 49 -32 49q-11 0 -35 -11q-9 -5 -16 -10v-324q0 -5 -42 -7.5t-83.5 0.5t-41.5 12z" />
    <glyph glyph-name="i" unicode="i" horiz-adv-x="273" 
d="M45 5v491q0 4 45.5 6t91.5 0.5t46 -5.5v-491q0 -5 -45.5 -7t-91.5 -0.5t-46 6.5zM45 555v144q0 6 45.5 8.5t91.5 1t46 -5.5v-147q0 -4 -45.5 -6t-91.5 -0.5t-46 5.5z" />
    <glyph glyph-name="j" unicode="j" horiz-adv-x="271" 
d="M45 35v461q0 6 86 6q95 0 95 -5v-533q0 -74 -61.5 -117.5t-153.5 -43.5q-129 0 -129 90q0 22 5 37q1 5 5 13q9 -1 25 -1q73 0 100.5 23t27.5 70zM45 555v144q0 10 100 10q81 0 81 -6v-147q0 -7 -98 -7q-83 0 -83 6z" />
    <glyph glyph-name="k" unicode="k" horiz-adv-x="531" 
d="M220 228v-221q0 -7 -44 -10.5t-87.5 -1t-43.5 10.5v686q0 10 44 14t88 0.5t44 -11.5v-384l99 183q6 12 82.5 14.5t102.5 -9.5l-130 -212l150 -281q2 -4 -47.5 -7t-101.5 -1t-57 8z" />
    <glyph glyph-name="l" unicode="l" horiz-adv-x="272" 
d="M45 7v681q0 9 45.5 13t91 1t45.5 -9v-685q0 -5 -45.5 -7.5t-91 -1t-45.5 7.5z" />
    <glyph glyph-name="m" unicode="m" horiz-adv-x="788" 
d="M327 7v291q0 50 -33 50q-10 0 -30 -11q-5 -3 -15 -11v-320q0 -7 -42.5 -9t-85.5 1t-43 9v327h-25q-25 0 -31.5 44t10 88t48.5 44q40 0 73.5 -19t40.5 -36q62 55 135 55q78 0 124 -47q54 47 130 47q165 0 165 -201v-304q0 -4 -43 -6t-85.5 0.5t-42.5 7.5v291q0 50 -33 50
q-11 0 -31 -11q-5 -3 -15 -11v-321q0 -5 -42.5 -6.5t-85.5 0.5t-43 8z" />
    <glyph glyph-name="n" unicode="n" horiz-adv-x="551" 
d="M82 10v324h-26q-26 0 -33.5 44t10 88t51.5 44q42 0 72 -18t40 -36q63 54 155 54q82 0 121 -47t39 -154v-300q0 -12 -85.5 -11.5t-85.5 11.5v289q0 50 -35 50q-10 0 -34 -11q-12 -6 -17 -10v-321q0 -5 -43 -6.5t-86 1.5t-43 9z" />
    <glyph glyph-name="o" unicode="o" horiz-adv-x="513" 
d="M26 250q0 122 62.5 191t168.5 69t168 -69t62 -191t-62 -191t-168 -69t-168.5 69t-62.5 191zM201 251q0 -92 56 -92q57 0 57 92t-57 92q-56 0 -56 -92z" />
    <glyph glyph-name="p" unicode="p" horiz-adv-x="555" 
d="M89 333h-34q-24 0 -33 44t11 88t64 44q29 0 53.5 -13.5t34 -25t9.5 -13.5q67 52 137 52q86 0 142 -60.5t56 -186.5q0 -127 -56 -196.5t-142 -69.5q-33 0 -55 2l-16 2v-182q0 -6 -85.5 -7t-85.5 7v515zM353 249q0 34 -9 55t-23 26t-27.5 3t-25.5 -10v-177q25 -3 44 -1.5
t30 26.5t11 78z" />
    <glyph glyph-name="q" unicode="q" horiz-adv-x="511" 
d="M226 -4q-92 0 -146 71t-54 184q0 125 66 192t184 67q112 0 190 -53v-637q0 -13 -86 -13t-86 13v184q-40 -8 -68 -8zM205 249q0 -68 26.5 -86t62.5 -5v186q-43 11 -66 -9.5t-23 -85.5z" />
    <glyph glyph-name="r" unicode="r" horiz-adv-x="396" 
d="M82 2v332h-27q-16 0 -25.5 19.5t-9.5 48.5q0 108 64 108q45 0 75 -27.5t30 -62.5q21 41 56.5 65.5t72.5 24.5q58 0 70 -30q7 -20 -4.5 -69.5t-28.5 -80.5q-3 -5 -5 -5t-18.5 7.5t-29.5 7.5q-38 0 -38 -60v-279q0 -4 -45.5 -6t-91 0t-45.5 7z" />
    <glyph glyph-name="s" unicode="s" horiz-adv-x="450" 
d="M66 180q33 -20 44 -25q50 -24 84 -24q30 0 30 21q0 15 -52 39q-125 51 -125 167q0 74 54 113t140 39q65 0 117.5 -16t52.5 -42q0 -22 -21.5 -58t-29.5 -39q-43 24 -93 24q-27 0 -27 -19q0 -12 10.5 -20.5t41.5 -22.5q25 -11 43.5 -21t41.5 -28t35.5 -43t12.5 -56
q0 -80 -53 -129.5t-160 -49.5q-71 0 -129 24t-58 66q0 28 13.5 59t27.5 41z" />
    <glyph glyph-name="t" unicode="t" horiz-adv-x="368" 
d="M91 361h-51q-13 0 -18 34.5t0 69.5t16 35h53v88q0 12 42 17t84.5 1t42.5 -14v-43v-21.5t0.5 -19t0.5 -8.5h85q18 0 16.5 -70t-16.5 -70h-71v-354q0 -8 -46 -10.5t-92 1t-46 10.5v354z" />
    <glyph glyph-name="u" unicode="u" horiz-adv-x="544" 
d="M468 494v-328h26q27 0 33 -44t-13.5 -88t-53.5 -44q-67 0 -99 55l-1 -1q-61 -54 -131 -54q-97 0 -143 48.5t-46 160.5v295q0 10 86 11t86 -11v-292q0 -50 32 -50q24 0 54 21v321q0 10 85 10t85 -10z" />
    <glyph glyph-name="v" unicode="v" horiz-adv-x="521" 
d="M135 12l-129 485q-2 5 45.5 7t96 0.5t48.5 -4.5l72 -340l54 335q1 3 21.5 5.5t49 3t56.5 0t47.5 -2.5t18.5 -5l-141 -489q-7 -10 -119 -10t-120 15z" />
    <glyph glyph-name="w" unicode="w" horiz-adv-x="752" 
d="M421 10l-41 224l-51 -224q-3 -14 -114.5 -14.5t-114.5 17.5l-89 487q-1 2 16.5 3.5t43.5 2t52 0t44 -1.5t18 -2l46 -338l83 334q2 6 66 6t66 -6l82 -330l36 327q0 6 45 8t89 -0.5t43 -6.5l-98 -486q-3 -15 -111 -16t-111 16z" />
    <glyph glyph-name="x" unicode="x" horiz-adv-x="557" 
d="M227 491l53 -162l65 168q5 9 117 7q82 -1 79 -10l-122 -253l122 -229q7 -7 -83 -13q-122 -7 -128 11l-54 167l-62 -174q-2 -6 -52.5 -7t-98 3.5t-43.5 10.5l113 230l-117 245q-6 8 24 13q66 11 151 2q32 -3 36 -9z" />
    <glyph glyph-name="y" unicode="y" horiz-adv-x="537" 
d="M180 40l-169 453q-8 10 77 13q105 2 108 -10l72 -236l69 238q2 4 51 6.5t95.5 -0.5t42.5 -11l-235 -669q-1 -5 -51.5 -5.5t-99.5 3t-47 8.5z" />
    <glyph glyph-name="z" unicode="z" horiz-adv-x="454" 
d="M27 123l191 223l-175 -6q-6 0 -7 40t4 80t15 40h319q7 0 32.5 -47t21.5 -53l-194 -244l173 12q12 2 15.5 -40t-2.5 -85t-18 -43h-320q-15 0 -38.5 56.5t-16.5 66.5z" />
    <glyph glyph-name="braceleft" unicode="{" horiz-adv-x="362" 
d="M225 202v-265q0 -41 51 -82q18 -15 -16 -42q-36 -30 -67 -27q-9 1 -14 6q-21 20 -33.5 34.5t-24.5 44.5t-12 66v240q0 24 -18 49t-45 37q-13 7 -15.5 54.5t15.5 55.5q63 24 63 84v255q0 68 74 130q18 10 43.5 1t44 -29.5t5.5 -33.5q-51 -51 -51 -83v-250q0 -74 -58 -132
q58 -56 58 -113z" />
    <glyph glyph-name="bar" unicode="|" horiz-adv-x="628" 
d="M369 893v-1083q0 -18 -29 -26t-58 0t-29 26v1083q0 18 29 26t58 0t29 -26z" />
    <glyph glyph-name="braceright" unicode="}" horiz-adv-x="362" 
d="M138 -63v265q0 58 57 113q-58 58 -58 132v250q0 32 -51 83q-13 13 5 34t44 29.5t44 -1.5q77 -64 77 -130v-255q0 -61 60 -84q18 -8 15.5 -55.5t-15.5 -54.5q-27 -12 -43.5 -36.5t-16.5 -49.5v-240q0 -36 -13 -66.5t-25 -44t-35 -34.5q-20 -18 -65 9q-38 23 -37 44
q0 6 5 10q52 42 52 82z" />
    <glyph glyph-name="asciitilde" unicode="~" horiz-adv-x="459" 
d="M74 226q-19 5 -39 39.5t-10 44.5q61 61 124 63q33 2 74 -17.5t62 -19.5q37 1 69 39q12 8 38.5 -27.5t18.5 -50.5q-14 -27 -45.5 -48.5t-60.5 -21.5q-41 -2 -89 19t-61 21q-8 0 -15 -2t-12.5 -3.5t-13 -6.5t-11.5 -7.5t-14 -10.5t-15 -11z" />
    <glyph glyph-name="exclamdown" unicode="&#xa1;" horiz-adv-x="287" 
d="M45 -191l20 481q0 3 35.5 5t71.5 1t36 -5l20 -481q0 -5 -45.5 -7t-91.5 -0.5t-46 6.5zM45 349v144q0 6 46.5 8.5t92.5 1t46 -5.5v-147q0 -4 -46 -6t-92.5 -0.5t-46.5 5.5z" />
    <glyph glyph-name="cent" unicode="&#xa2;" horiz-adv-x="528" 
d="M333 707v-63q58 -4 99 -22t41 -45q0 -26 -15.5 -59.5t-31.5 -53.5l-16 -21q-26 15 -77 18v-206q55 4 94 22q5 -7 13 -19t21.5 -46t13.5 -65q0 -34 -40 -55.5t-102 -25.5v-62q0 -21 -28 -21t-28 21v61q-110 6 -176 80.5t-66 213.5q0 130 66.5 203t175.5 82v63
q0 19 28 18.5t28 -18.5zM205 359q0 -86 72 -102v202q-72 -14 -72 -100z" />
    <glyph glyph-name="sterling" unicode="&#xa3;" horiz-adv-x="490" 
d="M389 299h-92q-6 -81 -37 -128h172q18 0 25.5 -42.5t0.5 -85.5t-25 -43h-342q-24 14 -44 62t0 68q82 82 90 169h-85q-14 0 -19.5 21t0 42t18.5 21h60q-2 3 -10.5 16.5t-12 19t-10.5 18.5t-10.5 22.5t-8 23t-6 27.5t-1.5 29q0 171 249 171q63 0 111 -17.5t48 -50.5
q0 -30 -14.5 -79.5t-26.5 -59.5q-40 21 -90 21q-95 0 -95 -61q0 -39 45 -80h110q20 0 20 -42t-20 -42z" />
    <glyph glyph-name="currency" unicode="&#xa4;" horiz-adv-x="728" 
d="M97 141l79 79q-35 54 -36 118t34 118l-82 82q-10 9 1.5 28t31 31t29.5 2l81 -81q54 38 119.5 38t120.5 -37l80 80q9 10 28 -1t31 -30.5t3 -29.5l-81 -80q36 -54 35.5 -119t-37.5 -120l79 -79q9 -9 -3 -28t-30.5 -30.5t-27.5 -1.5l-79 79q-55 -35 -118 -35.5t-117 35.5
l-79 -79q-10 -10 -29.5 1.5t-30.5 31t-2 28.5zM270 423q-35 -35 -35 -83t35 -85q35 -35 85 -35t84 34q35 35 35 85t-35 85q-34 36 -83.5 35.5t-85.5 -36.5z" />
    <glyph glyph-name="yen" unicode="&#xa5;" horiz-adv-x="659" 
d="M567 213h-134v-196q0 -17 -54.5 -24.5t-109.5 -0.5t-55 25v196h-123q-23 0 -23 32t23 32h123v61h-123q-23 0 -23 37t23 37h91l-182 284q-5 8 63 13q124 9 166 -21q7 -5 11 -11l91 -157l90 157q13 24 70.5 30.5t109 1t48.5 -10.5l-181 -286h99q15 0 21.5 -18.5t0.5 -37
t-22 -18.5h-134v-61h134q15 0 21.5 -16t0.5 -32t-22 -16z" />
    <glyph glyph-name="brokenbar" unicode="&#xa6;" horiz-adv-x="415" 
d="M269 193v-383q0 -18 -29 -26t-58 0t-29 26v383q0 18 29 26t58 0t29 -26zM269 711v-356q0 -18 -29 -26t-58 0t-29 26v356q0 18 29 26t58 0t29 -26z" />
    <glyph glyph-name="section" unicode="&#xa7;" horiz-adv-x="617" 
d="M91 24q29 -17 66 -34q76 -33 123 -33q44 0 44 30q0 15 -27.5 29t-66 30t-77.5 37t-66.5 58.5t-27.5 86.5q0 92 78 144q-74 47 -78 135q0 91 70.5 147t188.5 56q78 0 145 -14t69 -37q0 -36 -24 -86t-34 -55q-90 27 -146 27q-52 0 -52 -33q0 -21 28.5 -41t69.5 -38t82 -39
t69.5 -54.5t28.5 -73.5q0 -92 -78 -142q31 -20 54.5 -55t23.5 -69q0 -93 -64 -150t-200 -59q-66 0 -119 9.5t-92 36t-39 66.5q0 35 16 72t35 49zM383 231q0 23 -37.5 47.5t-67.5 24.5q-43 0 -43 -43q0 -26 35 -50.5t63 -24.5q29 0 39.5 11.5t10.5 34.5z" />
    <glyph glyph-name="dieresis" unicode="&#xa8;" horiz-adv-x="457" 
d="M38 551v140q0 6 35 8t69.5 0.5t34.5 -4.5v-143q0 -3 -34.5 -5t-69.5 -1t-35 5zM268 551v140q0 6 35 8t69.5 0.5t34.5 -4.5v-143q0 -3 -34.5 -5t-69.5 -1t-35 5z" />
    <glyph glyph-name="copyright" unicode="&#xa9;" horiz-adv-x="693" 
d="M84 464q0 112 78.5 190.5t190.5 78.5t190.5 -78.5t78.5 -190.5t-78.5 -190.5t-190.5 -78.5t-190.5 78.5t-78.5 190.5zM142 467q0 -89 61.5 -151.5t152.5 -62.5q88 0 150.5 63t62.5 151q0 87 -62.5 150t-150.5 63t-151 -63t-63 -150zM450 583q0 -10 -6.5 -28.5t-15 -31.5
t-14.5 -9q-17 10 -41 10q-20 0 -34 -14t-14 -41q0 -55 57 -55q29 0 40 11q5 3 13 -10t14 -31t6 -29q0 -17 -26.5 -27t-62.5 -10q-66 0 -108 39t-42 109t43 110t108 40q32 0 57.5 -9t25.5 -24z" />
    <glyph glyph-name="ordfeminine" unicode="&#xaa;" horiz-adv-x="506" 
d="M369 471h24q23 0 23 -46q0 -28 -11.5 -50t-31.5 -22q-38 0 -57 19q-9 6 -16 19q-32 -38 -105 -38q-49 0 -82 34.5t-33 81.5q0 98 120 98h47v18q0 17 -7.5 22t-31.5 5q-21 0 -45 -6l-20 -5q-4 6 -10 20q-9 22 -9 40q0 17 11 20q37 18 118 18q63 0 89.5 -31t26.5 -92v-105z
M195 471q0 -29 28 -29q12 0 24 9v52h-20q-32 0 -32 -32z" />
    <glyph glyph-name="guillemotleft" unicode="&#xab;" horiz-adv-x="773" 
d="M273 29l-174 207q-21 21 4 46l168 197q13 13 39.5 -2.5t41.5 -41t1 -38.5l-132 -142l134 -144q14 -12 -1 -38t-41.5 -41.5t-39.5 -2.5zM573 29l-174 207q-21 21 4 46l168 197q13 13 39.5 -2.5t41.5 -41t1 -38.5l-132 -142l134 -144q14 -12 -1 -38t-41.5 -41.5t-39.5 -2.5
z" />
    <glyph glyph-name="logicalnot" unicode="&#xac;" horiz-adv-x="613" 
d="M391 220h-294q-18 0 -26 29t0 58t26 29h372q41 0 41 -38v-217q0 -14 -30 -19t-60.5 1.5t-30.5 20.5z" />
    <glyph glyph-name="uni00AD" unicode="&#xad;" horiz-adv-x="454" 
d="M372 190h-295q-18 0 -26 29t0 58t26 29h295q18 0 26 -29t0 -58t-26 -29z" />
    <glyph glyph-name="registered" unicode="&#xae;" horiz-adv-x="701" 
d="M84 464q0 112 78.5 190.5t190.5 78.5t190.5 -78.5t78.5 -190.5t-78.5 -190.5t-190.5 -78.5t-190.5 78.5t-78.5 190.5zM142 467q0 -89 61.5 -151.5t152.5 -62.5q88 0 150.5 63t62.5 151q0 87 -62.5 150t-150.5 63t-151 -63t-63 -150zM475 529q0 -51 -42 -80l70 -88
q-4 -8 -18 -20t-33 -20t-39.5 0t-33.5 37l-30 67h-8v-94q0 -12 -48.5 -12t-48.5 12v269q0 15 15 15h103q113 0 113 -86zM341 543v-60h2q39 0 39 33q0 27 -33 27h-8z" />
    <glyph glyph-name="degree" unicode="&#xb0;" horiz-adv-x="386" 
d="M40 526q0 83 40.5 128t112.5 45q71 0 111.5 -45.5t40.5 -127.5t-40.5 -127.5t-111.5 -45.5q-72 0 -112.5 45t-40.5 128zM108 526q0 -47 22.5 -72.5t62.5 -25.5q39 0 61 25.5t22 72.5t-22 72.5t-61 25.5q-40 0 -62.5 -25.5t-22.5 -72.5z" />
    <glyph glyph-name="plusminus" unicode="&#xb1;" horiz-adv-x="595" 
d="M353 614v-138h139q18 0 26 -29t0 -58t-26 -29h-139v-101q0 -8 -58 -8.5t-58 8.5v101h-140q-18 0 -26 29t0 58t26 29h140v138q0 18 29 26t58 0t29 -26zM97 213h395q18 0 26 -29t0 -58t-26 -29h-395q-18 0 -26 29t0 58t26 29z" />
    <glyph glyph-name="twosuperior" unicode="&#xb2;" horiz-adv-x="352" 
d="M274 359h-190q-17 0 -23.5 40t-0.5 46q75 59 93 83q15 20 15 36q0 19 -7 27t-25 8q-24 0 -52 -18q-4 6 -10.5 15.5t-14 32.5t-1.5 38q6 13 43.5 24t80.5 11q108 0 108 -96q0 -73 -90 -151l101 4q2 -18 2 -44q0 -56 -29 -56z" />
    <glyph glyph-name="threesuperior" unicode="&#xb3;" horiz-adv-x="305" 
d="M29 398q0 8 2.5 18.5t6.5 19.5t7.5 16.5t6.5 11.5l3 4q26 -17 58 -17q18 0 29.5 8.5t11.5 22.5q0 15 -9.5 20.5t-33.5 5.5h-10q-6 0 -10.5 11.5t-4.5 22.5t9 11l18 1q32 2 32 28q0 20 -35 20q-27 0 -51 -10q-4 6 -11 23q-10 26 -10 43q0 19 36 30.5t83 11.5q51 0 77 -22
t26 -56q0 -48 -51 -79q29 -13 44.5 -31t15.5 -51q0 -44 -31 -71.5t-91 -27.5q-44 0 -81 10.5t-37 25.5z" />
    <glyph glyph-name="acute" unicode="&#xb4;" horiz-adv-x="357" 
d="M287 605l-171 -75q-10 -4 -24.5 17.5t-18.5 43.5t5 30l162 89q11 5 27.5 -20.5t22 -51t-2.5 -33.5z" />
    <glyph glyph-name="mu" unicode="&#xb5;" horiz-adv-x="572" 
d="M468 494v-328h26q27 0 33 -44t-13.5 -88t-53.5 -44q-67 0 -99 55l-1 -1q-27 -24 -67 -35.5t-81 0.5v-168q0 -16 -43 -22t-86 0.5t-43 21.5v653q0 10 86 11t86 -11v-292q0 -50 32 -50q24 0 54 21v321q0 10 85 10t85 -10z" />
    <glyph glyph-name="paragraph" unicode="&#xb6;" horiz-adv-x="780" 
d="M185 21v272q-75 0 -115 57.5t-40 142.5q0 96 55.5 151.5t159.5 55.5h429q20 0 29 -40t0.5 -80t-29.5 -40h-50v-519q0 -19 -50 -26.5t-100 0.5t-50 26v489q0 14 -20 19.5t-40.5 0t-20.5 -19.5v-489q0 -17 -39.5 -24t-79 0t-39.5 24z" />
    <glyph glyph-name="periodcentered" unicode="&#xb7;" horiz-adv-x="309" 
d="M58 216v180q0 6 47 8t94.5 0.5t47.5 -4.5v-183q0 -4 -47.5 -6t-94.5 -0.5t-47 5.5z" />
    <glyph glyph-name="cedilla" unicode="&#xb8;" horiz-adv-x="402" 
d="M194 -34v55h61q50 -107 35 -146q-13 -39 -72 -44q-57 -5 -101 15q-20 8 -15.5 48t26.5 40h33q21 0 27 5.5t6 26.5z" />
    <glyph glyph-name="onesuperior" unicode="&#xb9;" horiz-adv-x="283" 
d="M231 683v-320q0 -9 -61.5 -9t-61.5 9v227l-52 -1q-15 0 -15 60q0 46 15 46h157q18 0 18 -12z" />
    <glyph glyph-name="ordmasculine" unicode="&#xba;" horiz-adv-x="366" 
d="M40 526q0 83 40.5 128t112.5 45q71 0 111.5 -45.5t40.5 -127.5t-40.5 -127.5t-111.5 -45.5q-72 0 -112.5 45t-40.5 128zM153 527q0 -51 40 -51q16 0 28 11.5t12 39.5q0 27 -12 39t-28 12q-40 0 -40 -51z" />
    <glyph glyph-name="guillemotright" unicode="&#xbb;" horiz-adv-x="732" 
d="M652 236l-174 -207q-14 -14 -40 1.5t-41 42t-1 38.5l134 144l-132 142q-14 13 1 38.5t41 41t40 2.5l168 -197q25 -25 4 -46zM352 236l-174 -207q-14 -14 -40 1.5t-41 42t-1 38.5l134 144l-132 142q-14 13 1 38.5t41 41t40 2.5l168 -197q25 -25 4 -46z" />
    <glyph glyph-name="onequarter" unicode="&#xbc;" horiz-adv-x="839" 
d="M615 8v67h-106q-12 9 -24.5 35.5t-5.5 40.5l106 188q2 4 37.5 5.5t70.5 1.5t35 -2l1 -194h31q6 0 5.5 -36.5t-5.5 -36.5h-31v-68q0 -6 -28.5 -9.5t-57 -1t-28.5 9.5zM577 149h57v102zM271 688v-320q0 -9 -61.5 -9t-61.5 9v227l-52 -1q-15 0 -15 60q0 46 15 46h157
q18 0 18 -12zM172 49l393 639q14 13 37 9t40.5 -22.5t7.5 -34.5l-393 -640q-13 -13 -36 -9t-41 23t-8 35z" />
    <glyph glyph-name="onehalf" unicode="&#xbd;" horiz-adv-x="848" 
d="M273 688v-320q0 -9 -61.5 -9t-61.5 9v227l-52 -1q-15 0 -15 60q0 46 15 46h157q18 0 18 -12zM752 0h-190q-17 0 -23.5 40t-0.5 46q75 59 93 83q15 20 15 36q0 19 -7 27t-25 8q-24 0 -52 -18q-4 6 -10.5 15.5t-14 32.5t-1.5 38q6 13 43.5 24t80.5 11q108 0 108 -96
q0 -73 -90 -151l101 4q2 -18 2 -44q0 -56 -29 -56zM172 49l393 639q14 13 37 9t40.5 -22.5t7.5 -34.5l-393 -640q-13 -13 -36 -9t-41 23t-8 35z" />
    <glyph glyph-name="threequarters" unicode="&#xbe;" horiz-adv-x="868" 
d="M615 8v67h-106q-12 9 -24.5 35.5t-5.5 40.5l106 188q2 4 37.5 5.5t70.5 1.5t35 -2l1 -194h31q6 0 5.5 -36.5t-5.5 -36.5h-31v-68q0 -6 -28.5 -9.5t-57 -1t-28.5 9.5zM577 149h57v102zM69 398q0 8 2.5 18.5t6.5 19.5t7.5 16.5t6.5 11.5l3 4q26 -17 58 -17q18 0 29.5 8.5
t11.5 22.5q0 15 -9.5 20.5t-33.5 5.5h-10q-6 0 -10.5 11.5t-4.5 22.5t9 11l18 1q32 2 32 28q0 20 -35 20q-27 0 -51 -10q-4 6 -11 23q-10 26 -10 43q0 19 36 30.5t83 11.5q51 0 77 -22t26 -56q0 -48 -51 -79q29 -13 44.5 -31t15.5 -51q0 -44 -31 -71.5t-91 -27.5
q-44 0 -81 10.5t-37 25.5zM172 49l393 639q14 13 37 9t40.5 -22.5t7.5 -34.5l-393 -640q-13 -13 -36 -9t-41 23t-8 35z" />
    <glyph glyph-name="questiondown" unicode="&#xbf;" horiz-adv-x="584" 
d="M415 506v-157q0 -5 -41 -7t-82.5 -0.5t-41.5 4.5v159q0 3 41 5t82.5 0.5t41.5 -4.5zM244 250v30q0 12 46 19t91.5 3t45.5 -18v-38q0 -26 -23.5 -57.5t-51.5 -57.5t-51.5 -59t-23.5 -60q0 -50 57 -50q58 0 116 38l4 -4q5 -5 11 -13t13.5 -19t14 -23.5t11 -26.5t5 -27
t-4.5 -25q-10 -26 -75.5 -49t-139.5 -23q-112 0 -168 48t-56 131q0 38 18.5 74.5t44.5 64t52.5 52t45 48t18.5 42.5z" />
    <glyph glyph-name="Agrave" unicode="&#xc0;" 
d="M466 691l172 -688q0 -3 -17.5 -6.5t-46 -6t-55.5 -2.5q-87 0 -94 28l-32 139h-159l-30 -134q-6 -31 -96 -31q-24 0 -46.5 2.5t-35 5.5t-12.5 6l178 687q0 8 119 8q155 0 155 -8zM259 282h105l-45 207h-6zM393 730l-171 75q-8 8 -2.5 33.5t22 51t27.5 20.5l162 -89
q9 -8 5 -30t-18.5 -43.5t-24.5 -17.5z" />
    <glyph glyph-name="Aacute" unicode="&#xc1;" 
d="M466 691l172 -688q0 -3 -17.5 -6.5t-46 -6t-55.5 -2.5q-87 0 -94 28l-32 139h-159l-30 -134q-6 -31 -96 -31q-24 0 -46.5 2.5t-35 5.5t-12.5 6l178 687q0 8 119 8q155 0 155 -8zM259 282h105l-45 207h-6zM432 805l-171 -75q-10 -4 -24.5 17.5t-18.5 43.5t5 30l162 89
q11 5 27.5 -20.5t22 -51t-2.5 -33.5z" />
    <glyph glyph-name="Acircumflex" unicode="&#xc2;" 
d="M466 691l172 -688q0 -3 -17.5 -6.5t-46 -6t-55.5 -2.5q-87 0 -94 28l-32 139h-159l-30 -134q-6 -31 -96 -31q-24 0 -46.5 2.5t-35 5.5t-12.5 6l178 687q0 8 119 8q155 0 155 -8zM259 282h105l-45 207h-6zM452 725l-125 73l-124 -73q-10 -4 -25.5 19t-20 46t4.5 31l154 84
q7 4 11 4t11 -4l154 -84q9 -8 4.5 -31t-19.5 -46t-25 -19z" />
    <glyph glyph-name="Atilde" unicode="&#xc3;" 
d="M466 691l172 -688q0 -3 -17.5 -6.5t-46 -6t-55.5 -2.5q-87 0 -94 28l-32 139h-159l-30 -134q-6 -31 -96 -31q-24 0 -46.5 2.5t-35 5.5t-12.5 6l178 687q0 8 119 8q155 0 155 -8zM259 282h105l-45 207h-6zM185 753q-19 5 -39 39.5t-10 44.5q61 61 124 63q33 2 74 -17.5
t62 -19.5q37 1 69 39q12 8 38.5 -27.5t18.5 -50.5q-14 -27 -45.5 -48.5t-60.5 -21.5q-41 -2 -89 19t-61 21q-8 0 -15 -2t-12.5 -3.5t-13 -6.5t-11.5 -7.5t-14 -10.5t-15 -11z" />
    <glyph glyph-name="Adieresis" unicode="&#xc4;" 
d="M466 691l172 -688q0 -3 -17.5 -6.5t-46 -6t-55.5 -2.5q-87 0 -94 28l-32 139h-159l-30 -134q-6 -31 -96 -31q-24 0 -46.5 2.5t-35 5.5t-12.5 6l178 687q0 8 119 8q155 0 155 -8zM259 282h105l-45 207h-6zM143 751v140q0 6 34.5 8t69.5 0.5t35 -4.5v-143q0 -3 -35 -5
t-69.5 -1t-34.5 5zM373 751v140q0 6 34.5 8t69.5 0.5t35 -4.5v-143q0 -3 -35 -5t-69.5 -1t-34.5 5z" />
    <glyph glyph-name="Aring" unicode="&#xc5;" 
d="M466 691l172 -688q0 -3 -17.5 -6.5t-46 -6t-55.5 -2.5q-87 0 -94 28l-32 139h-159l-30 -134q-6 -31 -96 -31q-24 0 -46.5 2.5t-35 5.5t-12.5 6l178 687q0 8 119 8q155 0 155 -8zM259 282h105l-45 207h-6zM235 815q0 38 26 64t64 26t64 -26t26 -64t-26 -64t-64 -26t-64 26
t-26 64zM266 816q0 -25 17.5 -42.5t42.5 -17.5t42.5 17.5t17.5 42.5t-17.5 42.5t-42.5 17.5t-42.5 -17.5t-17.5 -42.5z" />
    <glyph glyph-name="AE" unicode="&#xc6;" horiz-adv-x="917" 
d="M830 0h-338q-31 0 -31 32v124h-159l-64 -134q-18 -38 -133 -32q-67 5 -71 14l326 696h471q22 0 21 -89.5t-21 -89.5h-185v-99h129q12 0 16.5 -37t-1 -74t-17.5 -37h-127v-100h184q17 0 23 -43.5t-1.5 -87t-21.5 -43.5zM358 285h105v239h-6z" />
    <glyph glyph-name="Ccedilla" unicode="&#xc7;" horiz-adv-x="546" 
d="M275 -44v37q-116 15 -188 106t-72 248q0 168 87.5 265t218.5 97q73 0 128.5 -20.5t55.5 -54.5q0 -36 -29.5 -93.5t-50.5 -42.5q-9 8 -32.5 14.5t-40.5 6.5q-58 0 -93.5 -41t-35.5 -125q0 -85 36.5 -126t92.5 -41q23 0 51.5 6.5t40.5 18.5q10 8 28.5 -17.5t32.5 -62
t14 -56.5q0 -35 -50 -57.5t-124 -26.5q39 -92 26 -126q-13 -39 -74 -44q-59 -5 -99 15q-21 6 -15.5 47t26.5 41h33q21 0 27 5.5t6 26.5z" />
    <glyph glyph-name="Egrave" unicode="&#xc8;" horiz-adv-x="488" 
d="M310 730l-171 75q-8 8 -2.5 33.5t22 51t27.5 20.5l162 -89q9 -8 5 -30t-18.5 -43.5t-24.5 -17.5zM425 0h-342q-38 0 -38 31v643q0 26 23 26h358q22 0 21 -88.5t-21 -88.5h-185v-101h129q12 0 16.5 -37t-1 -74t-17.5 -37h-127v-100h184q17 0 23 -43.5t-1.5 -87
t-21.5 -43.5z" />
    <glyph glyph-name="Eacute" unicode="&#xc9;" horiz-adv-x="488" 
d="M349 805l-171 -75q-10 -4 -24.5 17.5t-18.5 43.5t5 30l162 89q11 5 27.5 -20.5t22 -51t-2.5 -33.5zM425 0h-342q-38 0 -38 31v643q0 26 23 26h358q22 0 21 -88.5t-21 -88.5h-185v-101h129q12 0 16.5 -37t-1 -74t-17.5 -37h-127v-100h184q17 0 23 -43.5t-1.5 -87
t-21.5 -43.5z" />
    <glyph glyph-name="Ecircumflex" unicode="&#xca;" horiz-adv-x="488" 
d="M369 725l-125 73l-124 -73q-10 -4 -25.5 19t-20 46t4.5 31l154 84q7 4 11 4t11 -4l154 -84q9 -8 4.5 -31t-19.5 -46t-25 -19zM425 0h-342q-38 0 -38 31v643q0 26 23 26h358q22 0 21 -88.5t-21 -88.5h-185v-101h129q12 0 16.5 -37t-1 -74t-17.5 -37h-127v-100h184
q17 0 23 -43.5t-1.5 -87t-21.5 -43.5z" />
    <glyph glyph-name="Edieresis" unicode="&#xcb;" horiz-adv-x="488" 
d="M59 751v140q0 6 34.5 8t69.5 0.5t35 -4.5v-143q0 -3 -35 -5t-69.5 -1t-34.5 5zM289 751v140q0 6 34.5 8t69.5 0.5t35 -4.5v-143q0 -3 -35 -5t-69.5 -1t-34.5 5zM425 0h-342q-38 0 -38 31v643q0 26 23 26h358q22 0 21 -88.5t-21 -88.5h-185v-101h129q12 0 16.5 -37t-1 -74
t-17.5 -37h-127v-100h184q17 0 23 -43.5t-1.5 -87t-21.5 -43.5z" />
    <glyph glyph-name="Igrave" unicode="&#xcc;" horiz-adv-x="432" 
d="M117 172v356h-71q-17 0 -24 43t0 86t24 43h336q17 0 23.5 -43t0 -86t-23.5 -43h-67v-356h70q17 0 24 -43t0 -86t-24 -43h-337q-17 0 -23.5 43t0 86t23.5 43h69zM282 730l-171 75q-8 8 -2.5 33.5t22 51t27.5 20.5l162 -89q9 -8 5 -30t-18.5 -43.5t-24.5 -17.5z" />
    <glyph glyph-name="Iacute" unicode="&#xcd;" horiz-adv-x="432" 
d="M117 172v356h-71q-17 0 -24 43t0 86t24 43h336q17 0 23.5 -43t0 -86t-23.5 -43h-67v-356h70q17 0 24 -43t0 -86t-24 -43h-337q-17 0 -23.5 43t0 86t23.5 43h69zM321 805l-171 -75q-10 -4 -24.5 17.5t-18.5 43.5t5 30l162 89q11 5 27.5 -20.5t22 -51t-2.5 -33.5z" />
    <glyph glyph-name="Icircumflex" unicode="&#xce;" horiz-adv-x="432" 
d="M117 172v356h-71q-17 0 -24 43t0 86t24 43h336q17 0 23.5 -43t0 -86t-23.5 -43h-67v-356h70q17 0 24 -43t0 -86t-24 -43h-337q-17 0 -23.5 43t0 86t23.5 43h69zM341 725l-125 73l-124 -73q-10 -4 -25.5 19t-20 46t4.5 31l154 84q7 4 11 4t11 -4l154 -84q9 -8 4.5 -31
t-19.5 -46t-25 -19z" />
    <glyph glyph-name="Idieresis" unicode="&#xcf;" horiz-adv-x="432" 
d="M32 751v140q0 6 35 8t69.5 0.5t34.5 -4.5v-143q0 -3 -34.5 -5t-69.5 -1t-35 5zM262 751v140q0 6 35 8t69.5 0.5t34.5 -4.5v-143q0 -3 -34.5 -5t-69.5 -1t-35 5zM117 172v356h-71q-17 0 -24 43t0 86t24 43h336q17 0 23.5 -43t0 -86t-23.5 -43h-67v-356h70q17 0 24 -43
t0 -86t-24 -43h-337q-17 0 -23.5 43t0 86t23.5 43h69z" />
    <glyph glyph-name="Eth" unicode="&#xd0;" horiz-adv-x="620" 
d="M60 26v274h-43q-18 0 -26 29t0 58t26 29h43v262q0 22 17 22h195q159 0 241.5 -80t82.5 -252q0 -368 -314 -368h-198q-24 0 -24 26zM290 300h-48v-79q0 -21 3.5 -26.5t17.5 -5.5q71 0 101.5 40t30.5 149q0 83 -33 112.5t-100 29.5h-20v-104h48q18 0 26 -29t0 -58t-26 -29z
" />
    <glyph glyph-name="Ntilde" unicode="&#xd1;" horiz-adv-x="657" 
d="M186 753q-19 5 -39 39.5t-10 44.5q61 61 124 63q33 2 74 -17.5t62 -19.5q37 1 69 39q12 8 38.5 -27.5t18.5 -50.5q-14 -27 -45.5 -48.5t-60.5 -21.5q-41 -2 -89 19t-61 21q-8 0 -15 -2t-12.5 -3.5t-13 -6.5t-11.5 -7.5t-14 -10.5t-15 -11zM400 6l-172 322v-317
q0 -18 -92.5 -18t-92.5 18v685q0 10 45 13.5t94 -3t58 -21.5l165 -318v320q0 18 93 19t93 -19v-675q0 -20 -91 -21t-100 15z" />
    <glyph glyph-name="Ograve" unicode="&#xd2;" horiz-adv-x="696" 
d="M414 730l-171 75q-8 8 -2.5 33.5t22 51t27.5 20.5l162 -89q9 -8 5 -30t-18.5 -43.5t-24.5 -17.5zM30 349q0 178 89.5 269t226.5 91q146 0 233 -89.5t87 -270.5q0 -182 -89 -270.5t-234 -88.5q-136 0 -224.5 92t-88.5 267zM235 349q0 -79 31 -121.5t82 -42.5q50 0 81.5 43
t31.5 121q0 82 -32.5 125t-80.5 43t-80.5 -44t-32.5 -124z" />
    <glyph glyph-name="Oacute" unicode="&#xd3;" horiz-adv-x="696" 
d="M453 805l-171 -75q-10 -4 -24.5 17.5t-18.5 43.5t5 30l162 89q11 5 27.5 -20.5t22 -51t-2.5 -33.5zM30 349q0 178 89.5 269t226.5 91q146 0 233 -89.5t87 -270.5q0 -182 -89 -270.5t-234 -88.5q-136 0 -224.5 92t-88.5 267zM235 349q0 -79 31 -121.5t82 -42.5
q50 0 81.5 43t31.5 121q0 82 -32.5 125t-80.5 43t-80.5 -44t-32.5 -124z" />
    <glyph glyph-name="Ocircumflex" unicode="&#xd4;" horiz-adv-x="696" 
d="M473 725l-125 73l-124 -73q-10 -4 -25.5 19t-20 46t4.5 31l154 84q7 4 11 4t11 -4l154 -84q9 -8 4.5 -31t-19.5 -46t-25 -19zM30 349q0 178 89.5 269t226.5 91q146 0 233 -89.5t87 -270.5q0 -182 -89 -270.5t-234 -88.5q-136 0 -224.5 92t-88.5 267zM235 349
q0 -79 31 -121.5t82 -42.5q50 0 81.5 43t31.5 121q0 82 -32.5 125t-80.5 43t-80.5 -44t-32.5 -124z" />
    <glyph glyph-name="Otilde" unicode="&#xd5;" horiz-adv-x="696" 
d="M205 753q-19 5 -39 39.5t-10 44.5q61 61 124 63q33 2 74 -17.5t62 -19.5q37 1 69 39q12 8 38.5 -27.5t18.5 -50.5q-14 -27 -45.5 -48.5t-60.5 -21.5q-41 -2 -89 19t-61 21q-8 0 -15 -2t-12.5 -3.5t-13 -6.5t-11.5 -7.5t-14 -10.5t-15 -11zM30 349q0 178 89.5 269
t226.5 91q146 0 233 -89.5t87 -270.5q0 -182 -89 -270.5t-234 -88.5q-136 0 -224.5 92t-88.5 267zM235 349q0 -79 31 -121.5t82 -42.5q50 0 81.5 43t31.5 121q0 82 -32.5 125t-80.5 43t-80.5 -44t-32.5 -124z" />
    <glyph glyph-name="Odieresis" unicode="&#xd6;" horiz-adv-x="696" 
d="M163 751v140q0 6 34.5 8t69.5 0.5t35 -4.5v-143q0 -3 -35 -5t-69.5 -1t-34.5 5zM393 751v140q0 6 34.5 8t69.5 0.5t35 -4.5v-143q0 -3 -35 -5t-69.5 -1t-34.5 5zM30 349q0 178 89.5 269t226.5 91q146 0 233 -89.5t87 -270.5q0 -182 -89 -270.5t-234 -88.5
q-136 0 -224.5 92t-88.5 267zM235 349q0 -79 31 -121.5t82 -42.5q50 0 81.5 43t31.5 121q0 82 -32.5 125t-80.5 43t-80.5 -44t-32.5 -124z" />
    <glyph glyph-name="multiply" unicode="&#xd7;" horiz-adv-x="610" 
d="M109 235l111 111l-112 113q-13 13 1.5 38.5t40.5 41t40 2.5l112 -113l114 114q13 13 39 -2t41 -41t2 -39l-114 -114l113 -113q10 -10 2.5 -28.5t-23 -33.5t-33 -23t-28.5 3l-113 113l-111 -111q-21 -21 -62 20t-20 62z" />
    <glyph glyph-name="Oslash" unicode="&#xd8;" horiz-adv-x="696" 
d="M30 349q0 178 89.5 269t226.5 91q53 0 106 -14l43 83q13 15 39.5 10t50 -25t14.5 -37l-44 -85q111 -95 111 -292q0 -182 -89 -270.5t-234 -88.5q-58 0 -115 19l-40 -78q-8 -14 -27 -11.5t-39 11.5t-32 24.5t-6 28.5l45 87q-99 97 -99 278zM493 349q0 76 -23 127
l-171 -329q23 -9 49 -9q65 0 105 55t40 156zM203 349q0 -63 15 -106l164 316q-20 5 -34 5q-61 0 -103 -56t-42 -159z" />
    <glyph glyph-name="Ugrave" unicode="&#xd9;" horiz-adv-x="628" 
d="M311 -10q-120 0 -200.5 66.5t-80.5 179.5v452q0 21 108.5 20t108.5 -20v-441q0 -20 20.5 -31.5t44.5 -12.5t44.5 10.5t20.5 33.5v444q0 21 108.5 19.5t108.5 -19.5v-470q0 -102 -73 -166.5t-210 -64.5zM380 730l-171 75q-8 8 -2.5 33.5t22 51t27.5 20.5l162 -89
q9 -8 5 -30t-18.5 -43.5t-24.5 -17.5z" />
    <glyph glyph-name="Uacute" unicode="&#xda;" horiz-adv-x="628" 
d="M419 805l-171 -75q-10 -4 -24.5 17.5t-18.5 43.5t5 30l162 89q11 5 27.5 -20.5t22 -51t-2.5 -33.5zM311 -10q-120 0 -200.5 66.5t-80.5 179.5v452q0 21 108.5 20t108.5 -20v-441q0 -20 20.5 -31.5t44.5 -12.5t44.5 10.5t20.5 33.5v444q0 21 108.5 19.5t108.5 -19.5v-470
q0 -102 -73 -166.5t-210 -64.5z" />
    <glyph glyph-name="Ucircumflex" unicode="&#xdb;" horiz-adv-x="628" 
d="M439 725l-125 73l-124 -73q-10 -4 -25.5 19t-20 46t4.5 31l154 84q7 4 11 4t11 -4l154 -84q9 -8 4.5 -31t-19.5 -46t-25 -19zM311 -10q-120 0 -200.5 66.5t-80.5 179.5v452q0 21 108.5 20t108.5 -20v-441q0 -20 20.5 -31.5t44.5 -12.5t44.5 10.5t20.5 33.5v444
q0 21 108.5 19.5t108.5 -19.5v-470q0 -102 -73 -166.5t-210 -64.5z" />
    <glyph glyph-name="Udieresis" unicode="&#xdc;" horiz-adv-x="628" 
d="M129 751v140q0 6 34.5 8t69.5 0.5t35 -4.5v-143q0 -3 -35 -5t-69.5 -1t-34.5 5zM359 751v140q0 6 34.5 8t69.5 0.5t35 -4.5v-143q0 -3 -35 -5t-69.5 -1t-34.5 5zM311 -10q-120 0 -200.5 66.5t-80.5 179.5v452q0 21 108.5 20t108.5 -20v-441q0 -20 20.5 -31.5t44.5 -12.5
t44.5 10.5t20.5 33.5v444q0 21 108.5 19.5t108.5 -19.5v-470q0 -102 -73 -166.5t-210 -64.5z" />
    <glyph glyph-name="Yacute" unicode="&#xdd;" horiz-adv-x="615" 
d="M412 805l-171 -75q-10 -4 -24.5 17.5t-18.5 43.5t5 30l162 89q11 5 27.5 -20.5t22 -51t-2.5 -33.5zM241 674l73 -218l84 218q9 25 68 31.5t113.5 1t51.5 -11.5l-208 -445v-232q0 -17 -54.5 -24.5t-109.5 -0.5t-55 25v226l-215 449q-4 6 55 13t123.5 0.5t73.5 -32.5z" />
    <glyph glyph-name="Thorn" unicode="&#xde;" horiz-adv-x="595" 
d="M532 382q0 -48 -15 -91.5t-46.5 -84t-91.5 -64.5t-140 -24v-104q0 -15 -48.5 -21t-96.5 -0.5t-48 20.5v686q0 9 48 12.5t96 -0.5t48 -11v-80q162 0 228 -60t66 -178zM239 446v-158h13q35 0 59 22t24 62t-16.5 57t-58.5 17h-21z" />
    <glyph glyph-name="germandbls" unicode="&#xdf;" horiz-adv-x="672" 
d="M289 84q0 32 8 66l8 28q33 -15 72 -15q26 0 42.5 12.5t16.5 35.5q0 37 -25 52t-83 18q-9 7 -13 15q-12 19 -12 48q0 21 7 41.5t21 20.5l29 1q2 3 4.5 10t3.5 10q8 26 8 56q0 38 -30 53.5t-59.5 -1.5t-29.5 -57l1 -616q0 -12 -88 -12t-88 12v645q0 101 66.5 152t175.5 51
q114 0 172.5 -44t58.5 -128q0 -87 -56 -183q65 -31 85 -51q43 -42 43 -121q0 -81 -52.5 -137t-146.5 -56q-60 0 -99.5 25t-39.5 69z" />
    <glyph glyph-name="agrave" unicode="&#xe0;" horiz-adv-x="517" 
d="M435 168h34q17 0 26.5 -20t9.5 -49q0 -41 -17.5 -75t-47.5 -34q-54 0 -87 29q-15 12 -23 29q-46 -58 -143 -58q-73 0 -123 52t-50 123q0 163 195 163h55v10q0 26 -8.5 33.5t-33.5 7.5q-37 0 -79 -8l-35 -8q-9 16 -14 30q-14 34 -14 59q0 24 17 33q57 25 163 25
q93 0 134 -46.5t41 -137.5v-158zM188 179q0 -22 12 -33.5t30 -11.5q19 0 34 15v77h-28q-48 0 -48 -47zM319 530l-171 75q-8 8 -2.5 33.5t22 51t27.5 20.5l162 -89q9 -8 5 -30t-18.5 -43.5t-24.5 -17.5z" />
    <glyph glyph-name="aacute" unicode="&#xe1;" horiz-adv-x="517" 
d="M435 168h34q17 0 26.5 -20t9.5 -49q0 -41 -17.5 -75t-47.5 -34q-54 0 -87 29q-15 12 -23 29q-46 -58 -143 -58q-73 0 -123 52t-50 123q0 163 195 163h55v10q0 26 -8.5 33.5t-33.5 7.5q-37 0 -79 -8l-35 -8q-9 16 -14 30q-14 34 -14 59q0 24 17 33q57 25 163 25
q93 0 134 -46.5t41 -137.5v-158zM188 179q0 -22 12 -33.5t30 -11.5q19 0 34 15v77h-28q-48 0 -48 -47zM351 605l-171 -75q-10 -4 -24.5 17.5t-18.5 43.5t5 30l162 89q11 5 27.5 -20.5t22 -51t-2.5 -33.5z" />
    <glyph glyph-name="acircumflex" unicode="&#xe2;" horiz-adv-x="517" 
d="M368 525l-125 73l-124 -73q-10 -4 -25.5 19t-20 46t4.5 31l154 84q7 4 11 4t11 -4l154 -84q9 -8 4.5 -31t-19.5 -46t-25 -19zM435 168h34q17 0 26.5 -20t9.5 -49q0 -41 -17.5 -75t-47.5 -34q-54 0 -87 29q-15 12 -23 29q-46 -58 -143 -58q-73 0 -123 52t-50 123
q0 163 195 163h55v10q0 26 -8.5 33.5t-33.5 7.5q-37 0 -79 -8l-35 -8q-9 16 -14 30q-14 34 -14 59q0 24 17 33q57 25 163 25q93 0 134 -46.5t41 -137.5v-158zM188 179q0 -22 12 -33.5t30 -11.5q19 0 34 15v77h-28q-48 0 -48 -47z" />
    <glyph glyph-name="atilde" unicode="&#xe3;" horiz-adv-x="517" 
d="M110 553q-19 5 -39 39.5t-10 44.5q61 61 124 63q33 2 74 -17.5t62 -19.5q37 1 69 39q12 8 38.5 -27.5t18.5 -50.5q-14 -27 -45.5 -48.5t-60.5 -21.5q-41 -2 -89 19t-61 21q-8 0 -15 -2t-12.5 -3.5t-13 -6.5t-11.5 -7.5t-14 -10.5t-15 -11zM435 168h34q17 0 26.5 -20
t9.5 -49q0 -41 -17.5 -75t-47.5 -34q-54 0 -87 29q-15 12 -23 29q-46 -58 -143 -58q-73 0 -123 52t-50 123q0 163 195 163h55v10q0 26 -8.5 33.5t-33.5 7.5q-37 0 -79 -8l-35 -8q-9 16 -14 30q-14 34 -14 59q0 24 17 33q57 25 163 25q93 0 134 -46.5t41 -137.5v-158z
M188 179q0 -22 12 -33.5t30 -11.5q19 0 34 15v77h-28q-48 0 -48 -47z" />
    <glyph glyph-name="adieresis" unicode="&#xe4;" horiz-adv-x="517" 
d="M63 551v140q0 6 34.5 8t69.5 0.5t35 -4.5v-143q0 -3 -35 -5t-69.5 -1t-34.5 5zM293 551v140q0 6 34.5 8t69.5 0.5t35 -4.5v-143q0 -3 -35 -5t-69.5 -1t-34.5 5zM435 168h34q17 0 26.5 -20t9.5 -49q0 -41 -17.5 -75t-47.5 -34q-54 0 -87 29q-15 12 -23 29
q-46 -58 -143 -58q-73 0 -123 52t-50 123q0 163 195 163h55v10q0 26 -8.5 33.5t-33.5 7.5q-37 0 -79 -8l-35 -8q-9 16 -14 30q-14 34 -14 59q0 24 17 33q57 25 163 25q93 0 134 -46.5t41 -137.5v-158zM188 179q0 -22 12 -33.5t30 -11.5q19 0 34 15v77h-28q-48 0 -48 -47z
" />
    <glyph glyph-name="aring" unicode="&#xe5;" horiz-adv-x="517" 
d="M162 619q0 38 26 64t64 26t64 -26t26 -64t-26 -64t-64 -26t-64 26t-26 64zM193 620q0 -25 17.5 -42.5t42.5 -17.5t42.5 17.5t17.5 42.5t-17.5 42.5t-42.5 17.5t-42.5 -17.5t-17.5 -42.5zM435 168h34q17 0 26.5 -20t9.5 -49q0 -41 -17.5 -75t-47.5 -34q-54 0 -87 29
q-15 12 -23 29q-46 -58 -143 -58q-73 0 -123 52t-50 123q0 163 195 163h55v10q0 26 -8.5 33.5t-33.5 7.5q-37 0 -79 -8l-35 -8q-9 16 -14 30q-14 34 -14 59q0 24 17 33q57 25 163 25q93 0 134 -46.5t41 -137.5v-158zM188 179q0 -22 12 -33.5t30 -11.5q19 0 34 15v77h-28
q-48 0 -48 -47z" />
    <glyph glyph-name="ae" unicode="&#xe6;" horiz-adv-x="685" 
d="M419 154q4 -22 19 -30t43 -8q66 0 129 31l4 -5l7.5 -15t9 -20t8 -23.5t3.5 -23.5q0 -24 -18 -34q-63 -36 -160 -36q-86 0 -147 53q-46 -53 -137 -53q-71 0 -118.5 49.5t-47.5 118.5q0 160 187 160h54v9q0 24 -8.5 32t-32.5 8q-36 0 -76 -8q-3 -1 -15 -3.5t-18 -4.5
q-9 15 -14 29q-14 34 -14 57t17 32q52 24 145 24q57 0 110 -32q72 37 116 37q94 0 147 -50t53 -120q0 -160 -180 -160h-66v-14zM181 172q0 -43 40 -43q18 0 34 14v73h-28q-46 0 -46 -44zM502 310q0 40 -40 40q-36 0 -43 -33v-1v-39h51q32 0 32 33z" />
    <glyph glyph-name="ccedilla" unicode="&#xe7;" horiz-adv-x="424" 
d="M209 248q0 -98 74 -98q48 0 80 19q15 0 27 -66.5t2 -79.5q-40 -24 -97 -30q23 -85 3 -123q-22 -42 -73 -46q-53 -5 -93 16q-16 8 -11.5 49.5t22.5 41.5h33q21 0 27 5.5t6 26.5v31q-79 13 -131 79.5t-52 173.5q0 117 63.5 190t163.5 73q111 0 152 -51q18 -21 0.5 -85
t-46.5 -74q-15 -5 -30 11q-39 39 -62 39q-24 0 -41 -24t-17 -78z" />
    <glyph glyph-name="egrave" unicode="&#xe8;" horiz-adv-x="486" 
d="M313 530l-171 75q-8 8 -2.5 33.5t22 51t27.5 20.5l162 -89q9 -8 5 -30t-18.5 -43.5t-24.5 -17.5zM423 27q-63 -37 -164 -37q-97 0 -165 67.5t-68 190.5q0 116 65.5 189t168.5 73q97 0 151.5 -51t54.5 -124q0 -162 -186 -162h-69q0 -30 16.5 -41.5t48.5 -11.5q70 0 133 32
q1 1 9 -13.5t16 -37t8 -39.5q0 -26 -19 -35zM298 316q0 42 -41 42q-19 0 -32.5 -11.5t-13.5 -33.5v-31h54q33 0 33 34z" />
    <glyph glyph-name="eacute" unicode="&#xe9;" horiz-adv-x="486" 
d="M352 605l-171 -75q-10 -4 -24.5 17.5t-18.5 43.5t5 30l162 89q11 5 27.5 -20.5t22 -51t-2.5 -33.5zM423 27q-63 -37 -164 -37q-97 0 -165 67.5t-68 190.5q0 116 65.5 189t168.5 73q97 0 151.5 -51t54.5 -124q0 -162 -186 -162h-69q0 -30 16.5 -41.5t48.5 -11.5
q70 0 133 32q1 1 9 -13.5t16 -37t8 -39.5q0 -26 -19 -35zM298 316q0 42 -41 42q-19 0 -32.5 -11.5t-13.5 -33.5v-31h54q33 0 33 34z" />
    <glyph glyph-name="ecircumflex" unicode="&#xea;" horiz-adv-x="486" 
d="M372 525l-125 73l-124 -73q-10 -4 -25.5 19t-20 46t4.5 31l154 84q7 4 11 4t11 -4l154 -84q9 -8 4.5 -31t-19.5 -46t-25 -19zM423 27q-63 -37 -164 -37q-97 0 -165 67.5t-68 190.5q0 116 65.5 189t168.5 73q97 0 151.5 -51t54.5 -124q0 -162 -186 -162h-69
q0 -30 16.5 -41.5t48.5 -11.5q70 0 133 32q1 1 9 -13.5t16 -37t8 -39.5q0 -26 -19 -35zM298 316q0 42 -41 42q-19 0 -32.5 -11.5t-13.5 -33.5v-31h54q33 0 33 34z" />
    <glyph glyph-name="edieresis" unicode="&#xeb;" horiz-adv-x="486" 
d="M62 551v140q0 6 35 8t69.5 0.5t34.5 -4.5v-143q0 -3 -34.5 -5t-69.5 -1t-35 5zM292 551v140q0 6 35 8t69.5 0.5t34.5 -4.5v-143q0 -3 -34.5 -5t-69.5 -1t-35 5zM423 27q-63 -37 -164 -37q-97 0 -165 67.5t-68 190.5q0 116 65.5 189t168.5 73q97 0 151.5 -51t54.5 -124
q0 -162 -186 -162h-69q0 -30 16.5 -41.5t48.5 -11.5q70 0 133 32q1 1 9 -13.5t16 -37t8 -39.5q0 -26 -19 -35zM298 316q0 42 -41 42q-19 0 -32.5 -11.5t-13.5 -33.5v-31h54q33 0 33 34z" />
    <glyph glyph-name="igrave" unicode="&#xec;" horiz-adv-x="267" 
d="M198 530l-171 75q-8 8 -2.5 33.5t22 51t27.5 20.5l162 -89q9 -8 5 -30t-18.5 -43.5t-24.5 -17.5zM45 5v475q0 3 44 5t88.5 0.5t44.5 -4.5v-475q0 -5 -44 -7t-88.5 -0.5t-44.5 6.5z" />
    <glyph glyph-name="iacute" unicode="&#xed;" horiz-adv-x="267" 
d="M237 605l-171 -75q-10 -4 -24.5 17.5t-18.5 43.5t5 30l162 89q11 5 27.5 -20.5t22 -51t-2.5 -33.5zM45 5v475q0 3 44 5t88.5 0.5t44.5 -4.5v-475q0 -5 -44 -7t-88.5 -0.5t-44.5 6.5z" />
    <glyph glyph-name="icircumflex" unicode="&#xee;" horiz-adv-x="267" 
d="M257 525l-125 73l-124 -73q-10 -4 -25.5 19t-20 46t4.5 31l154 84q7 4 11 4t11 -4l154 -84q9 -8 4.5 -31t-19.5 -46t-25 -19zM45 5v475q0 3 44 5t88.5 0.5t44.5 -4.5v-475q0 -5 -44 -7t-88.5 -0.5t-44.5 6.5z" />
    <glyph glyph-name="idieresis" unicode="&#xef;" horiz-adv-x="267" 
d="M-53 551v140q0 6 34.5 8t69.5 0.5t35 -4.5v-143q0 -3 -35 -5t-69.5 -1t-34.5 5zM177 551v140q0 6 34.5 8t69.5 0.5t35 -4.5v-143q0 -3 -35 -5t-69.5 -1t-34.5 5zM45 5v475q0 3 44 5t88.5 0.5t44.5 -4.5v-475q0 -5 -44 -7t-88.5 -0.5t-44.5 6.5z" />
    <glyph glyph-name="eth" unicode="&#xf0;" horiz-adv-x="574" 
d="M288 489l-154 -31h-2q-2 -1 -3 -1q-14 0 -23 13.5t-9 29.5q0 28 23 32l117 24q-25 29 -62 64q16 24 34 44q41 45 79 45q62 0 141 -114l84 17h4q14 0 23 -13.5t9 -29.5q0 -28 -22 -32l-57 -12q50 -98 50 -226q0 -150 -67 -229.5t-193 -79.5q-104 0 -162 60.5t-58 154.5
q0 98 55.5 146.5t140.5 48.5q44 0 95 -14q-4 43 -43 103zM213 215q0 -61 49 -61q35 0 51 25t16 63q0 12 -1 19q-20 14 -64 14q-24 0 -37.5 -16.5t-13.5 -43.5z" />
    <glyph glyph-name="ntilde" unicode="&#xf1;" horiz-adv-x="551" 
d="M136 553q-19 5 -39 39.5t-10 44.5q61 61 124 63q33 2 74 -17.5t62 -19.5q37 1 69 39q12 8 38.5 -27.5t18.5 -50.5q-14 -27 -45.5 -48.5t-60.5 -21.5q-41 -2 -89 19t-61 21q-8 0 -15 -2t-12.5 -3.5t-13 -6.5t-11.5 -7.5t-14 -10.5t-15 -11zM82 10v324h-26q-26 0 -33.5 44
t10 88t51.5 44q42 0 72 -18t40 -36q63 54 155 54q82 0 121 -47t39 -154v-300q0 -12 -85.5 -11.5t-85.5 11.5v289q0 50 -35 50q-10 0 -34 -11q-12 -6 -17 -10v-321q0 -5 -43 -6.5t-86 1.5t-43 9z" />
    <glyph glyph-name="ograve" unicode="&#xf2;" horiz-adv-x="513" 
d="M26 250q0 122 62.5 191t168.5 69t168 -69t62 -191t-62 -191t-168 -69t-168.5 69t-62.5 191zM201 251q0 -92 56 -92q57 0 57 92t-57 92q-56 0 -56 -92zM314 530l-171 75q-8 8 -2.5 33.5t22 51t27.5 20.5l162 -89q9 -8 5 -30t-18.5 -43.5t-24.5 -17.5z" />
    <glyph glyph-name="oacute" unicode="&#xf3;" horiz-adv-x="513" 
d="M26 250q0 122 62.5 191t168.5 69t168 -69t62 -191t-62 -191t-168 -69t-168.5 69t-62.5 191zM201 251q0 -92 56 -92q57 0 57 92t-57 92q-56 0 -56 -92zM353 605l-171 -75q-10 -4 -24.5 17.5t-18.5 43.5t5 30l162 89q11 5 27.5 -20.5t22 -51t-2.5 -33.5z" />
    <glyph glyph-name="ocircumflex" unicode="&#xf4;" horiz-adv-x="513" 
d="M26 250q0 122 62.5 191t168.5 69t168 -69t62 -191t-62 -191t-168 -69t-168.5 69t-62.5 191zM201 251q0 -92 56 -92q57 0 57 92t-57 92q-56 0 -56 -92zM373 525l-125 73l-124 -73q-10 -4 -25.5 19t-20 46t4.5 31l154 84q7 4 11 4t11 -4l154 -84q9 -8 4.5 -31t-19.5 -46
t-25 -19z" />
    <glyph glyph-name="otilde" unicode="&#xf5;" horiz-adv-x="513" 
d="M106 553q-19 5 -39 39.5t-10 44.5q61 61 124 63q33 2 74 -17.5t62 -19.5q37 1 69 39q12 8 38.5 -27.5t18.5 -50.5q-14 -27 -45.5 -48.5t-60.5 -21.5q-41 -2 -89 19t-61 21q-8 0 -15 -2t-12.5 -3.5t-13 -6.5t-11.5 -7.5t-14 -10.5t-15 -11zM26 250q0 122 62.5 191
t168.5 69t168 -69t62 -191t-62 -191t-168 -69t-168.5 69t-62.5 191zM201 251q0 -92 56 -92q57 0 57 92t-57 92q-56 0 -56 -92z" />
    <glyph glyph-name="odieresis" unicode="&#xf6;" horiz-adv-x="513" 
d="M64 551v140q0 6 35 8t69.5 0.5t34.5 -4.5v-143q0 -3 -34.5 -5t-69.5 -1t-35 5zM294 551v140q0 6 35 8t69.5 0.5t34.5 -4.5v-143q0 -3 -34.5 -5t-69.5 -1t-35 5zM26 250q0 122 62.5 191t168.5 69t168 -69t62 -191t-62 -191t-168 -69t-168.5 69t-62.5 191zM201 251
q0 -92 56 -92q57 0 57 92t-57 92q-56 0 -56 -92z" />
    <glyph glyph-name="divide" unicode="&#xf7;" horiz-adv-x="611" 
d="M227 92v140q0 4 36.5 6t73.5 0.5t37 -3.5v-142q0 -3 -36.5 -4.5t-73.5 -0.5t-37 4zM227 462v140q0 4 36.5 6t73.5 0.5t37 -3.5v-143q0 -5 -73.5 -5.5t-73.5 5.5zM527 290h-454q-21 0 -30 29t0 58t30 29h454q21 0 30 -29t0 -58t-30 -29z" />
    <glyph glyph-name="oslash" unicode="&#xf8;" horiz-adv-x="513" 
d="M26 250q0 122 62.5 191t168.5 69q43 0 79 -12l30 53q5 10 17.5 11.5t25.5 -4t25.5 -14.5t17 -20.5t-0.5 -21.5l-31 -56q67 -69 67 -196q0 -122 -62 -191t-168 -69q-45 0 -82 12l-16 -28q-12 -15 -35.5 -10t-42 25t-8.5 36l17 31q-64 70 -64 194zM362 251q0 44 -10 73
l-123 -223q12 -4 28 -4q41 0 73 35.5t32 118.5zM154 251q0 -43 7 -68l122 218q-11 4 -26 4q-41 0 -72 -35t-31 -119z" />
    <glyph glyph-name="ugrave" unicode="&#xf9;" horiz-adv-x="544" 
d="M348 530l-171 75q-8 8 -2.5 33.5t22 51t27.5 20.5l162 -89q9 -8 5 -30t-18.5 -43.5t-24.5 -17.5zM468 494v-328h26q27 0 33 -44t-13.5 -88t-53.5 -44q-67 0 -99 55l-1 -1q-61 -54 -131 -54q-97 0 -143 48.5t-46 160.5v295q0 10 86 11t86 -11v-292q0 -50 32 -50
q24 0 54 21v321q0 10 85 10t85 -10z" />
    <glyph glyph-name="uacute" unicode="&#xfa;" horiz-adv-x="544" 
d="M468 494v-328h26q27 0 33 -44t-13.5 -88t-53.5 -44q-67 0 -99 55l-1 -1q-61 -54 -131 -54q-97 0 -143 48.5t-46 160.5v295q0 10 86 11t86 -11v-292q0 -50 32 -50q24 0 54 21v321q0 10 85 10t85 -10zM387 605l-171 -75q-10 -4 -24.5 17.5t-18.5 43.5t5 30l162 89
q11 5 27.5 -20.5t22 -51t-2.5 -33.5z" />
    <glyph glyph-name="ucircumflex" unicode="&#xfb;" horiz-adv-x="544" 
d="M377 525l-125 73l-124 -73q-10 -4 -25.5 19t-20 46t4.5 31l154 84q7 4 11 4t11 -4l154 -84q9 -8 4.5 -31t-19.5 -46t-25 -19zM468 494v-328h26q27 0 33 -44t-13.5 -88t-53.5 -44q-67 0 -99 55l-1 -1q-61 -54 -131 -54q-97 0 -143 48.5t-46 160.5v295q0 10 86 11t86 -11
v-292q0 -50 32 -50q24 0 54 21v321q0 10 85 10t85 -10z" />
    <glyph glyph-name="udieresis" unicode="&#xfc;" horiz-adv-x="544" 
d="M72 551v140q0 6 35 8t69.5 0.5t34.5 -4.5v-143q0 -3 -34.5 -5t-69.5 -1t-35 5zM302 551v140q0 6 35 8t69.5 0.5t34.5 -4.5v-143q0 -3 -34.5 -5t-69.5 -1t-35 5zM468 494v-328h26q27 0 33 -44t-13.5 -88t-53.5 -44q-67 0 -99 55l-1 -1q-61 -54 -131 -54q-97 0 -143 48.5
t-46 160.5v295q0 10 86 11t86 -11v-292q0 -50 32 -50q24 0 54 21v321q0 10 85 10t85 -10z" />
    <glyph glyph-name="yacute" unicode="&#xfd;" horiz-adv-x="537" 
d="M180 40l-169 453q-8 10 77 13q105 2 108 -10l68 -230l67 231q2 4 52.5 6.5t98.5 0t44 -10.5l-235 -669q-1 -5 -51.5 -5.5t-99.5 3t-47 8.5zM367 605l-171 -75q-10 -4 -24.5 17.5t-18.5 43.5t5 30l162 89q11 5 27.5 -20.5t22 -51t-2.5 -33.5z" />
    <glyph glyph-name="thorn" unicode="&#xfe;" horiz-adv-x="628" 
d="M326 510q210 0 210 -241q0 -130 -63.5 -199.5t-174.5 -69.5q-12 0 -34 2v-167q0 -26 -83 -26q-36 0 -62.5 7t-26.5 19v862q0 12 86 12q87 0 87 -13v-194q43 8 61 8zM354 251q0 104 -54 104q-18 0 -35 -12v-191q16 -7 28 -7q25 0 43 25t18 81z" />
    <glyph glyph-name="ydieresis" unicode="&#xff;" horiz-adv-x="524" 
d="M180 40l-169 453q-8 10 77 13q105 2 108 -10l68 -230l67 231q2 4 52.5 6.5t98.5 0t44 -10.5l-235 -669q-1 -5 -51.5 -5.5t-99.5 3t-47 8.5zM77 551v140q0 6 34.5 8t69.5 0.5t35 -4.5v-143q0 -3 -35 -5t-69.5 -1t-34.5 5zM307 551v140q0 6 34.5 8t69.5 0.5t35 -4.5v-143
q0 -3 -35 -5t-69.5 -1t-34.5 5z" />
    <glyph glyph-name="Gbreve" unicode="&#x11e;" horiz-adv-x="621" 
d="M238 899q4 -28 28.5 -57t68.5 -29q41 0 66.5 29t28.5 57q1 9 28.5 11.5t53.5 -2t24 -13.5q-21 -83 -66.5 -124.5t-134.5 -41.5q-93 0 -144 45t-62 120q-2 15 58 15q48 0 51 -10zM562 659q4 -43 -12.5 -88t-39 -68.5t-36.5 -13.5q-15 12 -43 20.5t-54 8.5
q-62 0 -100.5 -40t-38.5 -117q0 -91 39.5 -134.5t94.5 -43.5q48 0 48 26q0 24 1 78t1 58q0 14 38.5 20t77 0t38.5 -21l-4 -313q-20 -14 -80.5 -27.5t-138.5 -13.5q-145 0 -234 94t-89 276q0 155 87 252t241 97q70 0 126.5 -13.5t77.5 -36.5z" />
    <glyph glyph-name="gbreve" unicode="&#x11f;" horiz-adv-x="516" 
d="M178 699q4 -28 28.5 -57t68.5 -29q41 0 66.5 29t28.5 57q1 9 28.5 11.5t53.5 -2t24 -13.5q-21 -83 -66.5 -124.5t-134.5 -41.5q-93 0 -144 45t-62 120q-2 15 58 15q48 0 51 -10zM229 0q-97 0 -150 62.5t-53 178.5q0 129 69.5 198.5t179.5 69.5q121 0 196 -51v-498
q0 -74 -60 -113.5t-153 -39.5q-95 0 -169 24q-13 30 -9.5 71.5t20.5 65.5q67 -29 143 -29q55 0 55 39v30q-43 -8 -69 -8zM208 245q0 -63 25.5 -82t64.5 -10v190q-39 10 -64.5 -11.5t-25.5 -86.5z" />
    <glyph glyph-name="Idotaccent" unicode="&#x130;" horiz-adv-x="429" 
d="M144 742v140q0 6 35 8t69.5 0.5t34.5 -4.5v-143q0 -3 -34.5 -5t-69.5 -1t-35 5zM116 172v356h-71q-17 0 -24 43t0 86t24 43h336q17 0 23.5 -43t0 -86t-23.5 -43h-67v-356h70q17 0 24 -43t0 -86t-24 -43h-337q-17 0 -23.5 43t0 86t23.5 43h69z" />
    <glyph glyph-name="dotlessi" unicode="&#x131;" horiz-adv-x="249" 
d="M38 5v475q0 3 44 5t88.5 0.5t44.5 -4.5v-475q0 -5 -44 -7t-88.5 -0.5t-44.5 6.5z" />
    <glyph glyph-name="Lslash" unicode="&#x141;" horiz-adv-x="469" 
d="M68 26v266h-33q-18 0 -26 29t0 58t26 29h33v277q0 16 50.5 22t101 -0.5t50.5 -21.5v-277h96q18 0 26 -29t0 -58t-26 -29h-96v-125h152q18 0 25.5 -41.5t1 -83.5t-24.5 -42h-332q-16 0 -20 6t-4 20z" />
    <glyph glyph-name="lslash" unicode="&#x142;" horiz-adv-x="381" 
d="M95 7v211h-60q-18 0 -26 29t0 58t26 29h60v354q0 9 45.5 13t91 1t45.5 -9v-359h63q18 0 26 -29t0 -58t-26 -29h-63v-210q0 -5 -45.5 -7.5t-91 -1t-45.5 7.5z" />
    <glyph glyph-name="OE" unicode="&#x152;" horiz-adv-x="877" 
d="M30 348q0 179 90.5 271t228.5 92q48 0 91 -11h351q22 0 21 -89t-21 -89h-187v-98h131q12 0 16.5 -37t-1 -74t-17.5 -37h-129v-100h186q17 0 23 -44t-1.5 -88t-21.5 -44h-345h-4q-42 -14 -96 -14q-137 0 -226 93t-89 269zM236 348q0 -79 31.5 -122t83.5 -43q50 0 81.5 43
t31.5 122q0 82 -32.5 125.5t-80.5 43.5q-49 0 -82 -44t-33 -125z" />
    <glyph glyph-name="oe" unicode="&#x153;" horiz-adv-x="774" 
d="M26 250q0 122 62.5 191t168.5 69q89 0 148 -49q62 49 143 49q97 0 151.5 -51t54.5 -124q0 -162 -186 -162h-69q0 -30 16.5 -41.5t48.5 -11.5q70 0 133 32q1 1 9 -13.5t16 -37t8 -39.5q0 -26 -19 -35q-63 -37 -164 -37q-83 0 -144 48q-57 -48 -146 -48q-106 0 -168.5 69
t-62.5 191zM201 251q0 -92 56 -92q57 0 57 91q0 51 -17 72t-40 21q-56 0 -56 -92zM586 316q0 42 -41 42q-19 0 -32.5 -11.5t-13.5 -33.5v-31h54q33 0 33 34z" />
    <glyph glyph-name="Scedilla" unicode="&#x15e;" horiz-adv-x="531" 
d="M76 244q19 -15 52 -34q60 -33 104 -33q41 0 41 33q0 15 -12 26.5t-48 28.5q-28 13 -44 21.5t-42.5 28t-41 40.5t-26.5 55.5t-13 76.5q-2 99 64.5 160.5t172.5 61.5q72 0 133 -15.5t63 -40.5q2 -37 -21 -92.5t-32 -61.5q-64 33 -118 33q-47 0 -47 -36q0 -8 4.5 -15
t14 -13.5t18 -10.5t23.5 -11t22 -11q32 -15 54.5 -29.5t48 -38.5t39.5 -57.5t14 -74.5q0 -107 -59 -175t-182 -70q-60 0 -108.5 10t-84.5 39t-36 73q0 38 15 78.5t32 53.5zM257 -34q0 -21 -6 -26.5t-27 -5.5h-33q-22 0 -26.5 -40t15.5 -48q44 -20 101 -15q59 5 72 44
q15 39 -35 146h-61v-55z" />
    <glyph glyph-name="scedilla" unicode="&#x15f;" horiz-adv-x="450" 
d="M216 -34v55h61q50 -107 35 -146q-13 -39 -72 -44q-57 -5 -101 15q-20 8 -15.5 48t26.5 40h33q21 0 27 5.5t6 26.5zM66 180q33 -20 44 -25q50 -24 84 -24q30 0 30 21q0 15 -52 39q-125 51 -125 167q0 74 54 113t140 39q65 0 117.5 -16t52.5 -42q0 -22 -21.5 -58t-29.5 -39
q-43 24 -93 24q-27 0 -27 -19q0 -12 10.5 -20.5t41.5 -22.5q25 -11 43.5 -21t41.5 -28t35.5 -43t12.5 -56q0 -80 -53 -129.5t-160 -49.5q-71 0 -129 24t-58 66q0 28 13.5 59t27.5 41z" />
    <glyph glyph-name="Scaron" unicode="&#x160;" horiz-adv-x="536" 
d="M76 244q19 -15 52 -34q60 -33 104 -33q41 0 41 33q0 15 -12 26.5t-48 28.5q-28 13 -44 21.5t-42.5 28t-41 40.5t-26.5 55.5t-13 76.5q-2 99 64.5 160.5t172.5 61.5q72 0 133 -15.5t63 -40.5q2 -37 -21 -92.5t-32 -61.5q-64 33 -118 33q-47 0 -47 -36q0 -8 4.5 -15
t14 -13.5t18 -10.5t23.5 -11t22 -11q32 -15 54.5 -29.5t48 -38.5t39.5 -57.5t14 -74.5q0 -107 -59 -175t-182 -70q-60 0 -108.5 10t-84.5 39t-36 73q0 38 15 78.5t32 53.5zM140 918l125 -73l124 73q10 4 25.5 -19t20 -46t-4.5 -31l-154 -84q-7 -4 -11 -4t-11 4l-154 84
q-9 8 -4.5 31t19.5 46t25 19z" />
    <glyph glyph-name="scaron" unicode="&#x161;" horiz-adv-x="450" 
d="M66 180q33 -20 44 -25q50 -24 84 -24q30 0 30 21q0 15 -52 39q-125 51 -125 167q0 74 54 113t140 39q65 0 117.5 -16t52.5 -42q0 -22 -21.5 -58t-29.5 -39q-43 24 -93 24q-27 0 -27 -19q0 -12 10.5 -20.5t41.5 -22.5q25 -11 43.5 -21t41.5 -28t35.5 -43t12.5 -56
q0 -80 -53 -129.5t-160 -49.5q-71 0 -129 24t-58 66q0 28 13.5 59t27.5 41zM100 708l125 -73l124 73q10 4 25.5 -19t20 -46t-4.5 -31l-154 -84q-7 -4 -11 -4t-11 4l-154 84q-9 8 -4.5 31t19.5 46t25 19z" />
    <glyph glyph-name="ubreve" unicode="&#x16d;" horiz-adv-x="544" 
d="M468 494v-328h26q27 0 33 -44t-13.5 -88t-53.5 -44q-67 0 -99 55l-1 -1q-61 -54 -131 -54q-97 0 -143 48.5t-46 160.5v295q0 10 86 11t86 -11v-292q0 -50 32 -50q24 0 54 21v321q0 10 85 10t85 -10z" />
    <glyph glyph-name="Ydieresis" unicode="&#x178;" horiz-adv-x="615" 
d="M241 674l73 -218l84 218q9 25 68 31.5t113.5 1t51.5 -11.5l-208 -445v-232q0 -17 -54.5 -24.5t-109.5 -0.5t-55 25v226l-215 449q-4 6 55 13t123.5 0.5t73.5 -32.5zM123 751v140q0 6 34.5 8t69.5 0.5t35 -4.5v-143q0 -3 -35 -5t-69.5 -1t-34.5 5zM353 751v140q0 6 34.5 8
t69.5 0.5t35 -4.5v-143q0 -3 -35 -5t-69.5 -1t-34.5 5z" />
    <glyph glyph-name="Zcaron" unicode="&#x17d;" horiz-adv-x="563" 
d="M41 155l234 363h-199q-17 0 -24 45.5t2 91t30 45.5h389q16 0 42 -70t22 -76l-234 -355h183q24 2 33 -48t-2 -100.5t-34 -50.5h-389q-9 0 -36.5 70.5t-16.5 84.5zM155 908l125 -73l124 73q10 4 25.5 -19t20 -46t-4.5 -31l-154 -84q-7 -4 -11 -4t-11 4l-154 84
q-9 8 -4.5 31t19.5 46t25 19z" />
    <glyph glyph-name="zcaron" unicode="&#x17e;" horiz-adv-x="454" 
d="M27 123l191 223l-175 -6q-6 0 -7 40t4 80t15 40h319q7 0 32.5 -47t21.5 -53l-194 -244l173 12q12 2 15.5 -40t-2.5 -85t-18 -43h-320q-15 0 -38.5 56.5t-16.5 66.5zM103 708l125 -73l124 73q10 4 25.5 -19t20 -46t-4.5 -31l-154 -84q-7 -4 -11 -4t-11 4l-154 84
q-9 8 -4.5 31t19.5 46t25 19z" />
    <glyph glyph-name="florin" unicode="&#x192;" horiz-adv-x="422" 
d="M116 367h-69q-7 0 -9.5 13.5t-0.5 33.5t5.5 39.5t9 33t9.5 13.5h69l3 22q11 105 58.5 146t127.5 41q44 0 93.5 -12.5t49.5 -38.5q0 -21 -16 -47.5t-32 -43.5t-16 -15q-32 21 -68 21q-37 0 -44 -52l-3 -21h93q7 0 9.5 -14t1 -33.5t-5.5 -39t-10.5 -33.5t-13.5 -14h-74
l-38 -384q-24 -177 -208 -177q-53 0 -90 13t-37 41q0 24 22 66q14 24 23 37q32 -21 79 -21q40 0 45 52z" />
    <glyph glyph-name="circumflex" unicode="&#x2c6;" horiz-adv-x="480" 
d="M368 525l-125 73l-124 -73q-10 -4 -25.5 19t-20 46t4.5 31l154 84q7 4 11 4t11 -4l154 -84q9 -8 4.5 -31t-19.5 -46t-25 -19z" />
    <glyph glyph-name="caron" unicode="&#x2c7;" horiz-adv-x="483" 
d="M118 708l125 -73l124 73q10 4 25.5 -19t20 -46t-4.5 -31l-154 -84q-7 -4 -11 -4t-11 4l-154 84q-9 8 -4.5 31t19.5 46t25 19z" />
    <glyph glyph-name="ring" unicode="&#x2da;" horiz-adv-x="396" 
d="M112 619q0 38 26 64t64 26t64 -26t26 -64t-26 -64t-64 -26t-64 26t-26 64zM143 620q0 -25 17.5 -42.5t42.5 -17.5t42.5 17.5t17.5 42.5t-17.5 42.5t-42.5 17.5t-42.5 -17.5t-17.5 -42.5z" />
    <glyph glyph-name="tilde" unicode="&#x2dc;" horiz-adv-x="440" 
d="M74 553q-19 5 -39 39.5t-10 44.5q61 61 124 63q33 2 74 -17.5t62 -19.5q37 1 69 39q12 8 38.5 -27.5t18.5 -50.5q-14 -27 -45.5 -48.5t-60.5 -21.5q-41 -2 -89 19t-61 21q-8 0 -15 -2t-12.5 -3.5t-13 -6.5t-11.5 -7.5t-14 -10.5t-15 -11z" />
    <glyph glyph-name="afii10023" unicode="&#x401;" horiz-adv-x="493" 
d="M59 751v140q0 6 34.5 8t69.5 0.5t35 -4.5v-143q0 -3 -35 -5t-69.5 -1t-34.5 5zM289 751v140q0 6 34.5 8t69.5 0.5t35 -4.5v-143q0 -3 -35 -5t-69.5 -1t-34.5 5zM425 0h-342q-38 0 -38 31v643q0 26 23 26h358q22 0 21 -88.5t-21 -88.5h-185v-101h129q12 0 16.5 -37t-1 -74
t-17.5 -37h-127v-100h184q17 0 23 -43.5t-1.5 -87t-21.5 -43.5z" />
    <glyph glyph-name="afii10051" unicode="&#x402;" horiz-adv-x="733" 
d="M361 518v-110q18 9 63 18.5t85 9.5q92 0 142 -42.5t50 -148.5v-241q0 -3 -14.5 -6t-39.5 -5.5t-52 -2.5q-96 1 -96 15v203q0 40 -16 54t-50 14q-39 0 -72 -23v-248q0 -2 -10.5 -5.5t-34.5 -6.5t-54 -3q-31 0 -54.5 3t-34 6t-10.5 6v513h-120q-17 0 -24 45.5t0 91t24 45.5
h435q17 0 23.5 -45.5t0 -91t-23.5 -45.5h-117z" />
    <glyph glyph-name="afii10052" unicode="&#x403;" horiz-adv-x="610" 
d="M504 664v-163h-262v-494q0 -16 -96 -17t-96 17v658q0 21 9.5 28t36.5 7h362q29 0 37.5 -7.5t8.5 -28.5zM429 798l-171 -75q-10 -4 -24.5 17.5t-18.5 43.5t5 30l162 89q11 5 27.5 -20.5t22 -51t-2.5 -33.5z" />
    <glyph glyph-name="afii10053" unicode="&#x404;" horiz-adv-x="585" 
d="M530 634q0 -33 -25.5 -86t-46.5 -53l-14 5q-13 6 -33 12.5t-34 6.5q-102 0 -124 -111l161 1q18 0 26 -29t0 -58t-26 -29l-160 -1q12 -54 45 -80t78 -26q23 0 51.5 6.5t40.5 18.5q2 2 5 2q17 0 43.5 -54t26.5 -84q0 -39 -60 -62t-142 -23q-132 0 -217 93t-85 264
q0 168 87.5 265t218.5 97q73 0 128.5 -20.5t55.5 -54.5z" />
    <glyph glyph-name="afii10054" unicode="&#x405;" horiz-adv-x="531" 
d="M76 244q19 -15 52 -34q60 -33 104 -33q41 0 41 33q0 15 -12 26.5t-48 28.5q-28 13 -44 21.5t-42.5 28t-41 40.5t-26.5 55.5t-13 76.5q-2 99 64.5 160.5t172.5 61.5q72 0 133 -15.5t63 -40.5q2 -37 -21 -92.5t-32 -61.5q-64 33 -118 33q-47 0 -47 -36q0 -8 4.5 -15
t14 -13.5t18 -10.5t23.5 -11t22 -11q32 -15 54.5 -29.5t48 -38.5t39.5 -57.5t14 -74.5q0 -107 -59 -175t-182 -70q-60 0 -108.5 10t-84.5 39t-36 73q0 38 15 78.5t32 53.5z" />
    <glyph glyph-name="afii10055" unicode="&#x406;" horiz-adv-x="429" 
d="M116 172v356h-71q-17 0 -24 43t0 86t24 43h336q17 0 23.5 -43t0 -86t-23.5 -43h-67v-356h70q17 0 24 -43t0 -86t-24 -43h-337q-17 0 -23.5 43t0 86t23.5 43h69z" />
    <glyph glyph-name="afii10056" unicode="&#x407;" horiz-adv-x="429" 
d="M116 172v356h-71q-17 0 -24 43t0 86t24 43h336q17 0 23.5 -43t0 -86t-23.5 -43h-67v-356h70q17 0 24 -43t0 -86t-24 -43h-337q-17 0 -23.5 43t0 86t23.5 43h69zM30 744v140q0 6 35 8t69.5 0.5t34.5 -4.5v-143q0 -3 -34.5 -5t-69.5 -1t-35 5zM260 744v140q0 6 35 8
t69.5 0.5t34.5 -4.5v-143q0 -3 -34.5 -5t-69.5 -1t-35 5z" />
    <glyph glyph-name="afii10057" unicode="&#x408;" horiz-adv-x="462" 
d="M9 90q0 29 17 67.5t37 52.5q54 -39 108 -23t56 86v418q0 13 99 13.5t99 -13.5v-502q0 -98 -65.5 -149t-165.5 -51q-83 0 -134 27t-51 74z" />
    <glyph glyph-name="afii10058" unicode="&#x409;" horiz-adv-x="942" 
d="M609 693v-253q0 -3 2 -6.5t4 -2.5q141 7 214.5 -38t73.5 -164q0 -111 -59.5 -170t-170.5 -59h-205q-17 0 -28 11.5t-11 30.5v495h-103q0 -114 -27 -270t-70 -263q-3 -13 -95 -14t-100 12q-12 19 -6 28q58 101 90.5 229t39.5 221t7 213q0 11 222 11.5t222 -11.5zM610 299
v-140h18q43 0 63 16t20 53q0 71 -80 71h-21z" />
    <glyph glyph-name="afii10059" unicode="&#x40a;" horiz-adv-x="888" 
d="M392 42v224h-140v-249q0 -16 -101 -17t-101 17v663q0 21 101 21t101 -21v-240h140v238q0 14 50.5 19.5t101 0t50.5 -19.5v-231q272 8 272 -218q0 -111 -59 -170t-171 -59h-205q-17 0 -28 11.5t-11 30.5zM614 299h-20v-140h17q43 0 63 16t20 53q0 71 -80 71z" />
    <glyph glyph-name="afii10060" unicode="&#x40b;" horiz-adv-x="743" 
d="M361 518v-110q18 9 63 18.5t85 9.5q92 0 142 -42.5t50 -148.5v-241q0 -3 -14.5 -6t-39.5 -5.5t-52 -2.5q-96 1 -96 15v203q0 40 -16 54t-50 14q-39 0 -72 -23v-248q0 -2 -10.5 -5.5t-34.5 -6.5t-54 -3q-31 0 -54.5 3t-34 6t-10.5 6v513h-120q-17 0 -24 45.5t0 91t24 45.5
h435q17 0 23.5 -45.5t0 -91t-23.5 -45.5h-117z" />
    <glyph glyph-name="afii10061" unicode="&#x40c;" horiz-adv-x="620" 
d="M50 16v671q0 17 100 17t100 -17v-256l122 256q9 17 110 13q104 -3 110 -22q0 -2 -1 -4l-174 -314l202 -279q0 -2 -18.5 -17.5t-47.5 -33t-60.5 -29.5t-63 -4.5t-49.5 40.5l-114 218h-16v-241q0 -10 -50 -13.5t-100 1t-50 14.5zM434 798l-171 -75q-10 -4 -24.5 17.5
t-18.5 43.5t5 30l162 89q11 5 27.5 -20.5t22 -51t-2.5 -33.5z" />
    <glyph glyph-name="afii10062" unicode="&#x40e;" horiz-adv-x="617" 
d="M211 899q4 -28 28.5 -57t68.5 -29q41 0 66.5 29t28.5 57q1 9 28.5 11.5t53.5 -2t24 -13.5q-21 -83 -66.5 -124.5t-134.5 -41.5q-93 0 -144 45t-62 120q-2 15 58 15q48 0 51 -10zM241 667l73 -204l84 204q9 25 68 31.5t113.5 1t51.5 -11.5l-317 -662q0 -17 -57 -24.5
t-114.5 -0.5t-57.5 25l119 238l-215 422q-4 6 55 13t123.5 0.5t73.5 -32.5z" />
    <glyph glyph-name="afii10145" unicode="&#x40f;" horiz-adv-x="629" 
d="M242 691v-494h140v494q0 16 101 17t101 -17v-648q0 -22 -14 -32.5t-30 -10.5h-159v-104q0 -10 -34.5 -14t-69 0t-34.5 14v104h-157q-46 0 -46 36v655q0 16 101 16.5t101 -16.5z" />
    <glyph glyph-name="afii10017" unicode="&#x410;" 
d="M466 691l173 -678q0 -3 -17.5 -6.5t-46 -6t-55.5 -2.5q-87 0 -94 28l-33 129h-159l-34 -126q-6 -31 -96 -31q-24 0 -46.5 2.5t-35 5.5t-12.5 6l182 679q0 8 119 8q155 0 155 -8zM259 282h105l-45 207h-6z" />
    <glyph glyph-name="afii10018" unicode="&#x411;" horiz-adv-x="610" 
d="M253 421h5q70 4 123 -3.5t96.5 -29.5t66 -65.5t22.5 -107.5q0 -215 -230 -215h-236q-17 0 -28 11.5t-11 30.5v640q0 11 3.5 14.5t14.5 3.5h393q39 0 39 -32l-1 -137h-257v-110zM253 289v-130h18q43 0 63 16t20 53q0 33 -18.5 47t-61.5 14h-21z" />
    <glyph glyph-name="afii10019" unicode="&#x412;" horiz-adv-x="594" 
d="M541 519q0 -104 -90 -158q49 -18 82 -62t33 -118q0 -87 -59.5 -134t-170.5 -47h-236q-17 0 -28 11.5t-11 30.5v640q0 11 3.5 14.5t14.5 3.5h228q234 0 234 -181zM253 538v-131h5q96 0 96 64q0 35 -18.5 51t-61.5 16h-21zM253 289v-130h18q43 0 63 16t20 53q0 33 -18.5 47
t-61.5 14h-21z" />
    <glyph glyph-name="afii10020" unicode="&#x413;" horiz-adv-x="533" 
d="M504 664v-163h-262v-494q0 -16 -96 -17t-96 17v658q0 21 9.5 28t36.5 7h362q29 0 37.5 -7.5t8.5 -28.5z" />
    <glyph glyph-name="afii10021" unicode="&#x414;" horiz-adv-x="821" 
d="M660 679v-517h92l-1 -255q0 -5 -96.5 -5t-96.5 5l1 93h-293l-1 -93q0 -6 -98.5 -6.5t-98.5 6.5l1 255h73q45 62 65.5 204.5t20.5 308.5q0 10 6.5 17.5t16.5 7.5h385q10 0 17 -6t7 -15zM334 162h134v359h-69q0 -109 -18 -211.5t-47 -147.5z" />
    <glyph glyph-name="afii10022" unicode="&#x415;" horiz-adv-x="493" 
d="M430 0h-342q-38 0 -38 31v643q0 26 23 26h358q22 0 21 -88.5t-21 -88.5h-185v-101h129q12 0 16.5 -37t-1 -74t-17.5 -37h-127v-100h184q17 0 23 -43.5t-1.5 -87t-21.5 -43.5z" />
    <glyph glyph-name="afii10024" unicode="&#x416;" horiz-adv-x="984" 
d="M385 16v239h-12l-114 -218q-18 -33 -49.5 -40.5t-63 4.5t-60.5 29.5t-47.5 33t-18.5 17.5l202 279l-174 314q-6 10 26 18q63 14 148 7q40 -3 45 -12l118 -248v248q0 17 100 17t100 -17v-256l122 256q9 17 110 13q104 -3 110 -22q0 -2 -1 -4l-174 -314l202 -279
q0 -2 -18.5 -17.5t-47.5 -33t-60.5 -29.5t-63 -4.5t-49.5 40.5l-114 218h-16v-241q0 -10 -50 -13.5t-100 1t-50 14.5z" />
    <glyph glyph-name="afii10025" unicode="&#x417;" horiz-adv-x="528" 
d="M20 66q0 28 14 63.5t27 57t15 21.5q58 -35 122 -35q40 0 64.5 16t24.5 48q0 25 -22.5 33t-71.5 11h-36q-12 0 -22.5 29.5t-10.5 57.5q0 47 28 48l29 1q27 0 56.5 15.5t29.5 39.5q0 42 -75 42q-56 0 -108 -22q-45 81 -45 130q0 42 63.5 65t146.5 23q109 0 163 -40t54 -109
q0 -121 -104 -186q126 -51 126 -173q0 -95 -67 -153.5t-192 -58.5q-79 0 -144 22.5t-65 53.5z" />
    <glyph glyph-name="afii10026" unicode="&#x418;" horiz-adv-x="648" 
d="M413 328l-167 -320q-6 -11 -101 -13t-95 11v687q0 13 93 12t93 -12v-326l167 321q9 12 57.5 15.5t93 -1.5t44.5 -12v-683q0 -12 -92.5 -12t-92.5 12v321z" />
    <glyph glyph-name="afii10027" unicode="&#x419;" horiz-adv-x="648" 
d="M223 899q4 -28 28.5 -57t68.5 -29q41 0 66.5 29t28.5 57q1 9 28.5 11.5t53.5 -2t24 -13.5q-21 -83 -66.5 -124.5t-134.5 -41.5q-93 0 -144 45t-62 120q-2 15 58 15q48 0 51 -10zM246 8l167 320v-321q0 -12 92.5 -12t92.5 12v683q0 7 -44.5 12t-93 1.5t-57.5 -15.5
l-167 -321v326q0 11 -93 12t-93 -12v-687q0 -13 95 -11t101 13z" />
    <glyph glyph-name="afii10028" unicode="&#x41a;" horiz-adv-x="620" 
d="M50 16v671q0 17 100 17t100 -17v-256l122 256q9 17 110 13q104 -3 110 -22q0 -2 -1 -4l-174 -314l202 -279q0 -2 -18.5 -17.5t-47.5 -33t-60.5 -29.5t-63 -4.5t-49.5 40.5l-114 218h-16v-241q0 -10 -50 -13.5t-100 1t-50 14.5z" />
    <glyph glyph-name="afii10029" unicode="&#x41b;" horiz-adv-x="708" 
d="M455 0v510h-123q0 -125 -26 -259t-71 -247q-2 -7 -101 -9t-104 7q-12 19 -6 28q147 256 147 657q0 13 14 13h458q12 0 12 -11l1 -689q0 -5 -100.5 -5t-100.5 5z" />
    <glyph glyph-name="afii10030" unicode="&#x41c;" horiz-adv-x="907" 
d="M663 7l-23 413l-122 -406q-4 -11 -68 -11.5t-66 10.5l-126 411l-17 -416q0 -5 -20.5 -8t-49 -4t-57 0t-48 5t-19.5 9l27 677q1 18 128.5 17.5t133.5 -17.5l117 -328l105 328q5 17 137.5 16.5t133.5 -16.5l31 -681q0 -8 -49 -10.5t-98.5 1t-49.5 10.5z" />
    <glyph glyph-name="afii10031" unicode="&#x41d;" horiz-adv-x="644" 
d="M392 17v230h-140v-230q0 -16 -101 -17t-101 17v663q0 21 101 21t101 -21v-235h140v233q0 14 50.5 19.5t101 0t50.5 -19.5v-661q0 -16 -101 -16.5t-101 16.5z" />
    <glyph glyph-name="afii10032" unicode="&#x41e;" horiz-adv-x="696" 
d="M30 349q0 178 89.5 269t226.5 91q146 0 233 -89.5t87 -270.5q0 -182 -89 -270.5t-234 -88.5q-136 0 -224.5 92t-88.5 267zM235 349q0 -79 31 -121.5t82 -42.5q50 0 81.5 43t31.5 121q0 82 -32.5 125t-80.5 43t-80.5 -44t-32.5 -124z" />
    <glyph glyph-name="afii10033" unicode="&#x41f;" horiz-adv-x="649" 
d="M392 7v494h-140v-494q0 -16 -101 -17t-101 17v658q0 21 9.5 28t36.5 7h452q29 0 37.5 -7.5t8.5 -28.5v-657q0 -16 -101 -16.5t-101 16.5z" />
    <glyph glyph-name="afii10034" unicode="&#x420;" horiz-adv-x="570" 
d="M532 462q0 -48 -15 -91.5t-46.5 -84t-91.5 -64.5t-140 -24v-179q0 -12 -48.5 -17.5t-96.5 -1t-48 17.5v648q0 34 31 34h176q148 0 213.5 -61t65.5 -177zM239 526v-158h13q35 0 59 22t24 62t-16.5 57t-58.5 17h-21z" />
    <glyph glyph-name="afii10035" unicode="&#x421;" horiz-adv-x="561" 
d="M520 634q0 -36 -29.5 -93.5t-50.5 -42.5q-9 8 -32.5 14.5t-40.5 6.5q-58 0 -93.5 -41t-35.5 -125q0 -85 36.5 -126t92.5 -41q23 0 51.5 6.5t40.5 18.5q10 8 28.5 -17.5t32.5 -62t14 -56.5q0 -39 -60 -62t-142 -23q-132 0 -217 93t-85 264q0 168 87.5 265t218.5 97
q73 0 128.5 -20.5t55.5 -54.5z" />
    <glyph glyph-name="afii10036" unicode="&#x422;" horiz-adv-x="502" 
d="M351 518v-502q0 -19 -99 -20t-99 20v502h-120q-17 0 -24 45.5t0 91t24 45.5h435q17 0 23.5 -45.5t0 -91t-23.5 -45.5h-117z" />
    <glyph glyph-name="afii10037" unicode="&#x423;" horiz-adv-x="617" 
d="M241 667l73 -204l84 204q9 25 68 31.5t113.5 1t51.5 -11.5l-317 -662q0 -17 -57 -24.5t-114.5 -0.5t-57.5 25l119 238l-215 422q-4 6 55 13t123.5 0.5t73.5 -32.5z" />
    <glyph glyph-name="afii10038" unicode="&#x424;" horiz-adv-x="751" 
d="M729 344q0 -108 -67.5 -180t-199.5 -90v-108q0 -7 -84 -7t-84 7v107q-139 17 -208 89.5t-69 184.5q0 118 68.5 190t208.5 88v102q0 11 84 10t84 -10v-103q137 -18 202 -91t65 -189zM187 349q0 -34 27.5 -60.5t79.5 -38.5v198q-55 -11 -81 -37.5t-26 -61.5zM556 349
q0 73 -94 97v-195q94 25 94 98z" />
    <glyph glyph-name="afii10039" unicode="&#x425;" horiz-adv-x="683" 
d="M273 668l69 -168l79 173q9 23 69 28t115 -1t55 -10l-170 -346l176 -331q3 -5 -58.5 -11t-127 0t-74.5 31l-75 191l-68 -197q-7 -20 -68 -25.5t-118 0t-53 12.5l156 346l-162 330q-3 5 57 11t124.5 -0.5t73.5 -32.5z" />
    <glyph glyph-name="afii10040" unicode="&#x426;" horiz-adv-x="705" 
d="M242 691v-494h140v494q0 16 101 17t101 -17v-531l1 2h90l-1 -246q-1 -21 -97 -18t-96 23l1 79h-396q-29 0 -37.5 7.5t-8.5 28.5v655q0 16 101 16.5t101 -16.5z" />
    <glyph glyph-name="afii10041" unicode="&#x427;" horiz-adv-x="738" 
d="M622 690v-683q0 -13 -102 -13q-100 0 -100 18v213q-16 -9 -70 -18.5t-95 -9.5q-89 0 -132.5 42t-43.5 149v306q0 3 14.5 6t39.5 5.5t52 2.5q96 -1 96 -15v-268q0 -40 16 -54t50 -14q42 0 73 24v313q0 2 10.5 5t34.5 5.5t55 2.5q102 0 102 -17z" />
    <glyph glyph-name="afii10042" unicode="&#x428;" horiz-adv-x="934" 
d="M226 692v-494h130v494q0 16 101 17t101 -17v-494h130v494q0 16 101 17t101 -17v-658q0 -21 -9.5 -28t-36.5 -7h-774q-29 0 -37.5 7.5t-8.5 28.5v657q0 16 101 16.5t101 -16.5z" />
    <glyph glyph-name="afii10043" unicode="&#x429;" horiz-adv-x="1108" 
d="M255 692v-494h130v494q0 16 101 17t101 -17v-494h130v494q0 16 101 17t101 -17v-493h149l-1 -285q-1 -21 -106.5 -18t-105.5 23l1 80h-2h-755q-29 0 -37.5 7.5t-8.5 28.5v657q0 16 101 16.5t101 -16.5z" />
    <glyph glyph-name="afii10044" unicode="&#x42a;" horiz-adv-x="809" 
d="M443 668v-247h5q70 4 123 -3.5t96.5 -29.5t66 -65.5t22.5 -107.5q0 -215 -230 -215h-236q-17 0 -28 11.5t-11 30.5v489h-237v151q0 11 3.5 14.5t14.5 3.5h372q39 0 39 -32zM443 289v-130h18q43 0 63 16t20 53q0 33 -18.5 47t-61.5 14h-21z" />
    <glyph glyph-name="afii10045" unicode="&#x42b;" horiz-adv-x="824" 
d="M245 668v-224h5q142 7 215 -39.5t73 -172.5q0 -113 -59 -172.5t-171 -59.5h-216q-17 0 -28 11.5t-11 30.5v626q0 32 32 32h121q39 0 39 -32zM245 312v-153h18q40 0 61.5 23.5t21.5 62.5q0 67 -80 67h-21zM777 668v-626q0 -17 -12 -29.5t-28 -12.5h-113q-17 0 -28 11.5
t-11 30.5v626q0 32 32 32h121q39 0 39 -32z" />
    <glyph glyph-name="afii10046" unicode="&#x42c;" horiz-adv-x="570" 
d="M238 668v-207h5q308 16 308 -213q0 -122 -67 -185t-192 -63h-207q-17 0 -28 11.5t-11 30.5v626q0 32 32 32h121q39 0 39 -32zM238 319v-160h18q83 0 83 79q0 42 -19 61.5t-61 19.5h-21z" />
    <glyph glyph-name="afii10047" unicode="&#x42d;" horiz-adv-x="585" 
d="M44 634q0 34 55.5 54.5t128.5 20.5q138 0 222 -93.5t84 -255.5q0 -182 -80.5 -276t-221.5 -94q-82 0 -142 23t-60 62q0 20 14 56.5t32.5 62t28.5 17.5q12 -12 40.5 -18.5t51.5 -6.5q76 0 109 67l9 28h-99q-12 0 -22.5 29.5t-10.5 57.5q0 48 28 48l107 1q-2 10 -7 25
q-32 77 -114 77q-17 0 -40.5 -6.5t-32.5 -14.5q-21 -15 -50.5 42.5t-29.5 93.5z" />
    <glyph glyph-name="afii10048" unicode="&#x42e;" horiz-adv-x="1023" 
d="M252 683v-238h90q24 131 107.5 197.5t200.5 66.5q146 0 233 -89.5t87 -270.5q0 -182 -89 -270.5t-234 -88.5q-114 0 -196.5 65.5t-107.5 191.5h-91v-240q0 -16 -101 -17t-101 17v676q0 21 101 21t101 -21zM539 349q0 -79 31 -121.5t82 -42.5q50 0 81.5 43t31.5 121
q0 82 -32.5 125t-80.5 43t-80.5 -44t-32.5 -124z" />
    <glyph glyph-name="afii10049" unicode="&#x42f;" horiz-adv-x="590" 
d="M44 495q0 205 263 205h191q37 0 37 -35v-652q0 -9 -47.5 -13t-95.5 0t-48 14v227h-31l-94 -219q-24 -35 -68.5 -25.5t-88.5 40.5t-52 55l126 210q-44 30 -68 80.5t-24 112.5zM344 373v150h-21q-42 0 -60.5 -17.5t-18.5 -53.5q0 -79 95 -79h5z" />
    <glyph glyph-name="afii10065" unicode="&#x430;" horiz-adv-x="523" 
d="M441 168h34q17 0 26.5 -20t9.5 -49q0 -41 -17.5 -75t-47.5 -34q-54 0 -87 29q-15 12 -23 29q-46 -58 -143 -58q-73 0 -123 52t-50 123q0 163 195 163h55v10q0 26 -8.5 33.5t-33.5 7.5q-37 0 -79 -8l-35 -8q-9 16 -14 30q-14 34 -14 59q0 24 17 33q57 25 163 25
q93 0 134 -46.5t41 -137.5v-158zM194 179q0 -22 12 -33.5t30 -11.5q19 0 34 15v77h-28q-48 0 -48 -47z" />
    <glyph glyph-name="afii10066" unicode="&#x431;" horiz-adv-x="553" 
d="M391 527q-89 -6 -125 -34t-46 -83q52 15 120 15q94 0 139 -52.5t45 -143.5q0 -110 -64 -174.5t-172 -64.5q-118 0 -180.5 81.5t-62.5 230.5q0 140 77.5 228t187.5 108q45 8 88.5 28t64.5 46q14 3 27 -19t13 -47q0 -112 -112 -119zM360 228q0 29 -19.5 44.5t-52.5 15.5
q-51 0 -70 -13q-1 -8 -1 -40q0 -41 19 -66t54 -25q70 0 70 84z" />
    <glyph glyph-name="afii10067" unicode="&#x432;" horiz-adv-x="530" 
d="M474 379q0 -39 -19 -65.5t-63 -48.5q44 -11 74.5 -43t30.5 -82q0 -63 -54.5 -101.5t-153.5 -38.5h-204q-15 0 -25 8.5t-10 21.5v451q0 19 18 19h208q198 0 198 -121zM221 381v-99h4q88 0 88 50q0 26 -17.5 37.5t-56.5 11.5h-18zM221 219v-104h15q78 0 78 55
q0 27 -17.5 38t-57.5 11h-18z" />
    <glyph glyph-name="afii10068" unicode="&#x433;" horiz-adv-x="406" 
d="M399 464v-113h-178v-346q0 -9 -85.5 -9.5t-85.5 9.5v460q0 21 9.5 28t36.5 7h257q29 0 37.5 -7.5t8.5 -28.5z" />
    <glyph glyph-name="afii10069" unicode="&#x434;" horiz-adv-x="667" 
d="M549 488v-346h86v-248q0 -12 -79.5 -11.5t-79.5 11.5v106h-293v-106q0 -7 -39.5 -10t-79.5 -0.5t-40 9.5v249h65q51 69 68.5 136.5t17.5 207.5q0 14 18 14h341q15 0 15 -12zM261 142h124v207h-59q0 -45 -24 -118t-41 -89z" />
    <glyph glyph-name="afii10070" unicode="&#x435;" horiz-adv-x="486" 
d="M423 27q-63 -37 -164 -37q-97 0 -165 67.5t-68 190.5q0 116 65.5 189t168.5 73q97 0 151.5 -51t54.5 -124q0 -162 -186 -162h-69q0 -30 16.5 -41.5t48.5 -11.5q70 0 133 32q1 1 9 -13.5t16 -37t8 -39.5q0 -26 -19 -35zM298 316q0 42 -41 42q-19 0 -32.5 -11.5
t-13.5 -33.5v-31h54q33 0 33 34z" />
    <glyph glyph-name="afii10072" unicode="&#x436;" horiz-adv-x="798" 
d="M487 213v-209q0 -10 -88 -9t-88 9v209l-99 -209q-5 -7 -57 -8.5t-101.5 1.5t-47.5 7l151 283l-130 212q7 6 91 5t94 -10l99 -196v201q0 6 88 6t88 -6v-201l99 196q9 9 87.5 11t97.5 -6l-130 -212l151 -283q2 -4 -48 -7t-102 -1.5t-56 8.5z" />
    <glyph glyph-name="afii10073" unicode="&#x437;" horiz-adv-x="454" 
d="M20 45q0 21 13 48t25 44.5t14 17.5q50 -25 107 -25q59 0 59 35q0 18 -14 26.5t-51 9.5h-32q-10 0 -19.5 21.5t-9.5 41.5q0 34 25 35l25 1q23 0 42.5 11t19.5 30q0 29 -49 29q-41 0 -95 -16q-43 63 -43 94q0 30 56 47t130 17q91 0 136.5 -29t45.5 -79q0 -91 -83 -135
q102 -35 102 -125q0 -69 -56.5 -111.5t-162.5 -42.5q-69 0 -127 16t-58 39z" />
    <glyph glyph-name="afii10074" unicode="&#x438;" horiz-adv-x="570" 
d="M348 241l-141 -237q-7 -8 -82 -9t-75 8v495q0 7 86.5 6.5t86.5 -6.5v-229l135 225q5 8 45 10t78.5 0t38.5 -5v-495q0 -8 -86 -8.5t-86 8.5v237z" />
    <glyph glyph-name="afii10075" unicode="&#x439;" horiz-adv-x="570" 
d="M181 699q4 -28 28.5 -57t68.5 -29q41 0 66.5 29t28.5 57q1 9 28.5 11.5t53.5 -2t24 -13.5q-21 -83 -66.5 -124.5t-134.5 -41.5q-93 0 -144 45t-62 120q-2 15 58 15q48 0 51 -10zM205 0l143 241v-236q0 -9 86 -8.5t86 8.5v494q0 3 -38.5 5t-78.5 0t-45 -10l-135 -225v229
q0 6 -86.5 6.5t-86.5 -6.5v-490q0 -12 74 -14t81 6z" />
    <glyph glyph-name="afii10076" unicode="&#x43a;" horiz-adv-x="531" 
d="M219 209v-203q0 -11 -86.5 -11t-86.5 11v492q0 4 43 6t86.5 0t43.5 -7v-203l102 200q4 9 86.5 10.5t96.5 -8.5l-128 -226l150 -264q2 -4 -48 -7t-102 -1.5t-56 8.5z" />
    <glyph glyph-name="afii10077" unicode="&#x43b;" horiz-adv-x="590" 
d="M363 2v348h-88q0 -238 -64 -346q0 -4 -46 -7t-94.5 -1.5t-54.5 8.5q59 85 86 194.5t27 273.5q0 28 34 28h353q19 0 19 -16v-482q0 -7 -86 -7t-86 7z" />
    <glyph glyph-name="afii10078" unicode="&#x43c;" horiz-adv-x="735" 
d="M522 4l-15 289l-92 -256q-2 -6 -50 -6t-50 5l-90 256l-15 -288q0 -7 -41.5 -9t-82 1t-40.5 9l21 493q0 4 54.5 6t110 -0.5t57.5 -8.5l79 -210l72 211q3 9 117 8t115 -8l17 -491q1 -7 -40.5 -10t-84 -0.5t-42.5 9.5z" />
    <glyph glyph-name="afii10079" unicode="&#x43d;" horiz-adv-x="559" 
d="M338 5v176h-117v-178q0 -8 -85.5 -9t-85.5 9v491q0 10 85.5 10t85.5 -10v-168h117v168q0 11 85.5 11.5t85.5 -11.5v-489q0 -10 -85.5 -10t-85.5 10z" />
    <glyph glyph-name="afii10080" unicode="&#x43e;" horiz-adv-x="513" 
d="M26 250q0 122 62.5 191t168.5 69t168 -69t62 -191t-62 -191t-168 -69t-168.5 69t-62.5 191zM197 251q0 -99 60 -99q25 0 43 22.5t18 76.5t-18 76.5t-43 22.5q-60 0 -60 -99z" />
    <glyph glyph-name="afii10081" unicode="&#x43f;" horiz-adv-x="569" 
d="M342 4v346h-115v-346q0 -9 -86 -9.5t-86 9.5v461q0 21 7.5 28t33.5 7h379q22 0 30.5 -8t8.5 -28v-460q0 -9 -86 -9.5t-86 9.5z" />
    <glyph glyph-name="afii10082" unicode="&#x440;" horiz-adv-x="560" 
d="M94 333h-34q-24 0 -33 44t11 88t64 44q29 0 53.5 -13.5t34 -25t9.5 -13.5q67 52 137 52q86 0 142 -60.5t56 -186.5q0 -127 -56 -196.5t-142 -69.5q-33 0 -55 2l-16 2v-182q0 -6 -85.5 -7t-85.5 7v515zM358 249q0 34 -9 55t-23 26t-27.5 3t-25.5 -10v-177q25 -3 44 -1.5
t30 26.5t11 78z" />
    <glyph glyph-name="afii10083" unicode="&#x441;" horiz-adv-x="424" 
d="M209 248q0 -98 74 -98q48 0 80 19q15 0 27 -66.5t2 -79.5q-53 -33 -144 -33q-93 0 -157.5 68.5t-64.5 188.5q0 117 63.5 190t163.5 73q111 0 152 -51q18 -21 0.5 -85t-46.5 -74q-15 -5 -30 11q-39 39 -62 39q-24 0 -41 -24t-17 -78z" />
    <glyph glyph-name="afii10084" unicode="&#x442;" horiz-adv-x="447" 
d="M313 350v-346q0 -9 -89 -9t-89 9v346h-100q-17 0 -17 75t17 75h375q18 0 18.5 -75t-18.5 -75h-97z" />
    <glyph glyph-name="afii10085" unicode="&#x443;" horiz-adv-x="537" 
d="M191 19l-180 474q-8 10 77 13q105 2 108 -10l72 -236l69 238q2 4 51 6.5t95.5 -0.5t42.5 -11l-239 -680q-3 -8 -93 -7q-91 0 -86 14z" />
    <glyph glyph-name="afii10086" unicode="&#x444;" horiz-adv-x="792" 
d="M489 694v-195q30 10 65 10q86 0 142 -60.5t56 -186.5q0 -127 -56 -196.5t-142 -69.5q-35 0 -71 4v-182q0 -13 -85.5 -12.5t-85.5 12.5v182q-32 -10 -70 -10q-84 0 -143 69t-59 194q0 122 62 189.5t155 67.5q21 0 55 -6v190q0 12 88.5 12t88.5 -12zM223 249q0 -31 6.5 -54
t16.5 -34.5t22 -16t23.5 -1.5t20.5 11v190q-15 8 -29.5 8.5t-28.5 -7.5t-22.5 -33t-8.5 -63zM576 249q0 45 -15.5 72.5t-34.5 29.5t-35 -5v-200q25 -3 44 -1.5t30 26.5t11 78z" />
    <glyph glyph-name="afii10087" unicode="&#x445;" horiz-adv-x="541" 
d="M220 491l53 -162l65 168q5 9 117 7q82 -1 79 -10l-122 -253l122 -229q7 -7 -83 -13q-122 -7 -128 11l-54 167l-62 -174q-2 -6 -52.5 -7t-98 3.5t-43.5 10.5l113 230l-117 245q-6 8 24 13q66 11 151 2q32 -3 36 -9z" />
    <glyph glyph-name="afii10088" unicode="&#x446;" horiz-adv-x="664" 
d="M449 0h-341q-29 0 -37.5 7.5t-8.5 28.5v464q0 6 86 7t86 -7v-359h116v359q0 6 86 6.5t86 -6.5v-358h90v-248q0 -5 -41 -6.5t-82 1.5t-41 10z" />
    <glyph glyph-name="afii10089" unicode="&#x447;" horiz-adv-x="533" 
d="M475 497v-493q0 -7 -43 -9.5t-86 0.5t-43 10v143q-56 -17 -90 -17q-76 0 -120 40.5t-44 150.5v179q0 6 42.5 8t85.5 -0.5t43 -8.5v-163q0 -49 32 -49q28 0 51 21v193q0 5 43 7.5t86 -0.5t43 -12z" />
    <glyph glyph-name="afii10090" unicode="&#x448;" horiz-adv-x="786" 
d="M307 500q0 4 86 4.5t86 -4.5v-359h85v359q0 4 86 4t86 -4v-468q0 -12 -9.5 -22t-21.5 -10h-609q-26 0 -36 8t-10 28v463q0 6 86 6.5t86 -6.5v-358h85v359z" />
    <glyph glyph-name="afii10091" unicode="&#x449;" horiz-adv-x="870" 
d="M307 500q0 4 86 4.5t86 -4.5v-359h85v359q0 4 86 4t86 -4v-358h90v-243q0 -9 -82 -8.5t-82 8.5l1 101h-567q-26 0 -36 8t-10 28v463q0 6 86 6.5t86 -6.5v-358h85v359z" />
    <glyph glyph-name="afii10092" unicode="&#x44a;" horiz-adv-x="658" 
d="M366 481v-135q262 18 262 -164q0 -90 -52 -136t-142 -46h-204q-15 0 -25 8.5t-10 21.5v326h-146q-17 0 -17 18v108q0 11 3.5 14.5t14.5 3.5h296q20 0 20 -19zM366 231v-99h15q78 0 78 51q0 29 -16.5 38.5t-58.5 9.5h-18z" />
    <glyph glyph-name="afii10093" unicode="&#x44b;" horiz-adv-x="757" 
d="M531 5v491q0 4 42.5 6t85.5 0.5t43 -5.5v-491q0 -5 -43 -7t-85.5 -0.5t-42.5 6.5zM226 481v-135q262 18 262 -164q0 -90 -52 -136t-142 -46h-204q-15 0 -25 8.5t-10 21.5v452q0 11 3.5 14.5t14.5 3.5h133q20 0 20 -19zM226 231v-99h15q78 0 78 51q0 29 -16.5 38.5
t-58.5 9.5h-18z" />
    <glyph glyph-name="afii10094" unicode="&#x44c;" horiz-adv-x="522" 
d="M233 481v-135q262 18 262 -164q0 -90 -52 -136t-142 -46h-204q-15 0 -25 8.5t-10 21.5v452q0 11 3.5 14.5t14.5 3.5h133q20 0 20 -19zM233 231v-99h15q78 0 78 51q0 29 -16.5 38.5t-58.5 9.5h-18z" />
    <glyph glyph-name="afii10095" unicode="&#x44d;" horiz-adv-x="461" 
d="M36 456q0 24 45 39t104 15q110 0 178 -67.5t68 -184.5q0 -132 -65 -200t-178 -68q-67 0 -115 16.5t-48 44.5q0 15 12.5 43.5t28 49.5t22.5 15q21 -18 75 -18q78 0 92 59h-80q-9 0 -18 21.5t-9 41.5q0 35 23 35l86 1q-14 61 -92 61q-15 0 -33.5 -5t-25.5 -11
q-17 -11 -43.5 37t-26.5 75z" />
    <glyph glyph-name="afii10096" unicode="&#x44e;" horiz-adv-x="762" 
d="M505 -10q-90 0 -149.5 50t-75.5 141h-59v-178q0 -9 -85.5 -9t-85.5 9v496q0 11 85.5 11t85.5 -11v-173h60q18 88 77 136t147 48q106 0 168 -69t62 -191t-62 -191t-168 -69zM446 251q0 -99 60 -99q25 0 43 22.5t18 76.5t-18 76.5t-43 22.5q-60 0 -60 -99z" />
    <glyph glyph-name="afii10097" unicode="&#x44f;" horiz-adv-x="530" 
d="M269 172l-59 -168q-3 -7 -52.5 -9t-96.5 1.5t-45 9.5l110 199q-78 47 -78 127q0 78 47 123t141 45h208q18 0 18 -19v-451q0 -13 -10 -21.5t-25 -8.5h-136v175q-19 -2 -22 -3zM291 282v99h-18q-64 0 -64 -49q0 -50 75 -50h7z" />
    <glyph glyph-name="afii10071" unicode="&#x451;" horiz-adv-x="486" 
d="M423 27q-63 -37 -164 -37q-97 0 -165 67.5t-68 190.5q0 116 65.5 189t168.5 73q97 0 151.5 -51t54.5 -124q0 -162 -186 -162h-69q0 -30 16.5 -41.5t48.5 -11.5q70 0 133 32q1 1 9 -13.5t16 -37t8 -39.5q0 -26 -19 -35zM298 316q0 42 -41 42q-19 0 -32.5 -11.5
t-13.5 -33.5v-31h54q33 0 33 34zM58 551v140q0 6 35 8t69.5 0.5t34.5 -4.5v-143q0 -3 -34.5 -5t-69.5 -1t-35 5zM288 551v140q0 6 35 8t69.5 0.5t34.5 -4.5v-143q0 -3 -34.5 -5t-69.5 -1t-35 5z" />
    <glyph glyph-name="afii10099" unicode="&#x452;" horiz-adv-x="550" 
d="M85 12v685q0 5 41.5 7.5t83.5 0t42 -12.5v-200q56 17 92 17q71 0 114 -41t43 -150v-311q0 -100 -52 -152t-148 -52q-55 0 -92 18.5t-37 60.5q0 27 10 50q9 -1 25 -1q73 0 100.5 23t27.5 70v279q0 49 -32 49q-26 0 -51 -21v-324q0 -5 -42 -7.5t-83.5 0.5t-41.5 12z
M333 566h-296q-14 0 -14 33t14 33h296q10 0 10 -33t-10 -33z" />
    <glyph glyph-name="afii10100" unicode="&#x453;" horiz-adv-x="438" 
d="M399 464v-113h-178v-346q0 -9 -85.5 -9.5t-85.5 9.5v460q0 21 9.5 28t36.5 7h257q29 0 37.5 -7.5t8.5 -28.5zM334 605l-171 -75q-10 -4 -24.5 17.5t-18.5 43.5t5 30l162 89q11 5 27.5 -20.5t22 -51t-2.5 -33.5z" />
    <glyph glyph-name="afii10101" unicode="&#x454;" horiz-adv-x="459" 
d="M420 456q0 -27 -24 -68.5t-41 -30.5q-7 6 -26 11t-33 5q-35 0 -62 -20t-35 -54l86 -1q23 0 23 -35q0 -20 -9 -41.5t-18 -21.5h-80q8 -32 34.5 -50t60.5 -18q54 0 75 18q8 6 22.5 -12.5t26 -45t11.5 -41.5q0 -28 -48 -44.5t-115 -16.5q-113 0 -178 68t-65 200
q0 117 68 184.5t178 67.5q59 0 104 -15t45 -39z" />
    <glyph glyph-name="afii10102" unicode="&#x455;" horiz-adv-x="450" 
d="M66 180q33 -20 44 -25q50 -24 84 -24q30 0 30 21q0 15 -52 39q-125 51 -125 167q0 74 54 113t140 39q65 0 117.5 -16t52.5 -42q0 -22 -21.5 -58t-29.5 -39q-43 24 -93 24q-27 0 -27 -19q0 -12 10.5 -20.5t41.5 -22.5q25 -11 43.5 -21t41.5 -28t35.5 -43t12.5 -56
q0 -80 -53 -129.5t-160 -49.5q-71 0 -129 24t-58 66q0 28 13.5 59t27.5 41z" />
    <glyph glyph-name="afii10103" unicode="&#x456;" horiz-adv-x="273" 
d="M45 5v491q0 4 45.5 6t91.5 0.5t46 -5.5v-491q0 -5 -45.5 -7t-91.5 -0.5t-46 6.5zM45 555v144q0 6 45.5 8.5t91.5 1t46 -5.5v-147q0 -4 -45.5 -6t-91.5 -0.5t-46 5.5z" />
    <glyph glyph-name="afii10104" unicode="&#x457;" horiz-adv-x="249" 
d="M38 5v475q0 3 44 5t88.5 0.5t44.5 -4.5v-475q0 -5 -44 -7t-88.5 -0.5t-44.5 6.5zM-60 551v140q0 6 35 8t69.5 0.5t34.5 -4.5v-143q0 -3 -34.5 -5t-69.5 -1t-35 5zM170 551v140q0 6 34.5 8t69.5 0.5t35 -4.5v-143q0 -3 -35 -5t-69.5 -1t-34.5 5z" />
    <glyph glyph-name="afii10105" unicode="&#x458;" horiz-adv-x="271" 
d="M45 35v461q0 6 86 6q95 0 95 -5v-533q0 -74 -61.5 -117.5t-153.5 -43.5q-129 0 -129 90q0 22 5 37q1 5 5 13q9 -1 25 -1q73 0 100.5 23t27.5 70zM45 555v144q0 10 100 10q81 0 81 -6v-147q0 -7 -98 -7q-83 0 -83 6z" />
    <glyph glyph-name="afii10106" unicode="&#x459;" horiz-adv-x="833" 
d="M531 481v-135q262 18 262 -164q0 -90 -52 -136t-142 -46h-205q-15 0 -25 8.5t-10 21.5v299h-68q0 -74 -22.5 -175.5t-49.5 -149.5q-3 -13 -90.5 -14t-95.5 12q-12 19 -6 28q65 97 88.5 202t23.5 258q0 10 17 10h355h3q17 -2 17 -10v-6v-3zM531 231v-99h15q78 0 78 51
q0 29 -16.5 38.5t-58.5 9.5h-18z" />
    <glyph glyph-name="afii10107" unicode="&#x45a;" horiz-adv-x="755" 
d="M466 494v-148q262 18 262 -164q0 -90 -52 -136t-142 -46h-204q-15 0 -25 8.5t-10 21.5v151h-87v-179q0 -6 -85.5 -5.5t-85.5 5.5v492q0 12 85.5 11.5t85.5 -11.5v-168h87v168q0 10 85.5 10t85.5 -10zM466 231v-99h15q78 0 78 51q0 29 -16.5 38.5t-58.5 9.5h-18z" />
    <glyph glyph-name="afii10108" unicode="&#x45b;" horiz-adv-x="542" 
d="M314 566h-82v-74q56 17 85 17q76 0 120 -40.5t44 -150.5v-310q0 -6 -41.5 -8t-83 0.5t-41.5 8.5v294q0 49 -32 49q-9 0 -26.5 -7.5t-24.5 -13.5v-324q0 -5 -42 -7.5t-83.5 0.5t-41.5 12v554h-47q-14 0 -14 33t14 33h47v65q0 7 41.5 11t83.5 0t42 -16v-60h82q10 0 10 -33
t-10 -33z" />
    <glyph glyph-name="afii10109" unicode="&#x45c;" horiz-adv-x="557" 
d="M441 209v-203q0 -11 -86.5 -11t-86.5 11v492q0 4 43 6t86.5 0t43.5 -7v-203l102 200q4 9 86.5 10.5t96.5 -8.5l-128 -226l150 -264q2 -4 -48 -7t-102 -1.5t-56 8.5zM383 605l-171 -75q-10 -4 -24.5 17.5t-18.5 43.5t5 30l162 89q11 5 27.5 -20.5t22 -51t-2.5 -33.5z" />
    <glyph glyph-name="afii10110" unicode="&#x45e;" horiz-adv-x="537" 
d="M170 712q4 -28 28.5 -57t68.5 -29q41 0 66.5 29t28.5 57q1 9 28.5 11.5t53.5 -2t24 -13.5q-21 -83 -66.5 -124.5t-134.5 -41.5q-93 0 -144 45t-62 120q-2 15 58 15q48 0 51 -10zM191 19l-180 474q-8 10 77 13q105 2 108 -10l72 -236l69 238q2 4 51 6.5t95.5 -0.5
t42.5 -11l-239 -680q-3 -8 -93 -7q-91 0 -86 14z" />
    <glyph glyph-name="afii10193" unicode="&#x45f;" horiz-adv-x="535" 
d="M210 0h-116q-17 0 -24.5 8t-7.5 28v465q0 16 86 16.5t86 -16.5v-322h85v322q0 16 86 17t86 -17v-466q0 -35 -30 -35h-98v-102q0 -8 -38.5 -10.5t-77 0.5t-38.5 11z" />
    <glyph glyph-name="afii10050" unicode="&#x490;" horiz-adv-x="643" 
d="M574 664v-163h-322v-494q0 -16 -101 -17t-101 17v658q0 21 9.5 28t36.5 7h432q29 0 37.5 -7.5t8.5 -28.5z" />
    <glyph glyph-name="afii10098" unicode="&#x491;" horiz-adv-x="442" 
d="M399 539v-178h-178v-354q0 -16 -85.5 -17t-85.5 17v458q0 21 9.5 28t36.5 7h185v75h72q29 0 37.5 -7.5t8.5 -28.5z" />
    <glyph glyph-name="endash" unicode="&#x2013;" horiz-adv-x="469" 
d="M392 190h-315q-18 0 -26 29t0 58t26 29h315q18 0 26 -29t0 -58t-26 -29z" />
    <glyph glyph-name="emdash" unicode="&#x2014;" horiz-adv-x="789" 
d="M670 190h-573q-18 0 -26 29t0 58t26 29h573q18 0 26 -29t0 -58t-26 -29z" />
    <glyph glyph-name="quoteleft" unicode="&#x2018;" horiz-adv-x="341" 
d="M89 469v211q0 19 26 26t54 -0.5t33 -25.5l60 -211q0 -18 -43 -26t-86.5 0t-43.5 26z" />
    <glyph glyph-name="quoteright" unicode="&#x2019;" horiz-adv-x="314" 
d="M243 681l-60 -211q0 -18 -28.5 -26t-56.5 0t-28 26v211q0 18 43 26t86.5 0t43.5 -26z" />
    <glyph glyph-name="quotesinglbase" unicode="&#x201a;" horiz-adv-x="368" 
d="M55 -67l61 124l4 91q7 18 85.5 16t78.5 -21l-2 -85l-58 -136q-13 -28 -82 -29q-65 0 -84 22q-6 9 -3 18z" />
    <glyph glyph-name="quotedblleft" unicode="&#x201c;" horiz-adv-x="564" 
d="M89 469v211q0 19 26 26t54 -0.5t33 -25.5l60 -211q0 -18 -43 -26t-86.5 0t-43.5 26zM319 469v211q0 19 26 26t54 -0.5t33 -25.5l60 -211q0 -18 -43 -26t-86.5 0t-43.5 26z" />
    <glyph glyph-name="quotedblright" unicode="&#x201d;" horiz-adv-x="530" 
d="M243 680l-60 -211q-5 -18 -33 -25.5t-54 -0.5t-26 26v211q0 18 43 26t86.5 0t43.5 -26zM469 680l-60 -211q-5 -18 -33 -25.5t-54 -0.5t-26 26v211q0 18 43 26t86.5 0t43.5 -26z" />
    <glyph glyph-name="quotedblbase" unicode="&#x201e;" horiz-adv-x="651" 
d="M55 -67l61 124l4 91q7 18 85.5 16t78.5 -21l-2 -85l-58 -136q-13 -28 -82 -29q-65 0 -84 22q-6 9 -3 18zM325 -67l61 124l4 91q7 18 85.5 16t78.5 -21l-2 -85l-58 -136q-13 -28 -82 -29q-65 0 -84 22q-6 9 -3 18z" />
    <glyph glyph-name="dagger" unicode="&#x2020;" horiz-adv-x="475" 
d="M298 406v-456q0 -18 -29 -26t-58 0t-29 26v456h-115q-19 0 -26 29t1.5 58t26.5 29h113v181q0 18 29 26t58 0t29 -26v-181h114q19 0 26 -29t-1.5 -58t-26.5 -29h-112z" />
    <glyph glyph-name="daggerdbl" unicode="&#x2021;" horiz-adv-x="480" 
d="M410 116h-112v-166q0 -18 -29 -26t-58 0t-29 26v166h-115q-19 0 -26 29t1.5 58t26.5 29h113v204h-115q-19 0 -26 29t1.5 58t26.5 29h113v151q0 18 29 26t58 0t29 -26v-151h114q19 0 26 -29t-1.5 -58t-26.5 -29h-112v-204h114q19 0 26 -29t-1.5 -58t-26.5 -29z" />
    <glyph glyph-name="bullet" unicode="&#x2022;" horiz-adv-x="357" 
d="M83 264q0 39 28 67t67 28t67 -28t28 -67t-28 -67t-67 -28t-67 28t-28 67z" />
    <glyph glyph-name="ellipsis" unicode="&#x2026;" horiz-adv-x="909" 
d="M58 -4v180q0 6 47 8t94.5 0.5t47.5 -4.5v-183q0 -4 -47.5 -6t-94.5 -0.5t-47 5.5zM361 -4v180q0 6 47.5 8t94.5 0.5t47 -4.5v-183q0 -4 -47 -6t-94.5 -0.5t-47.5 5.5zM664 -4v180q0 6 47 8t94.5 0.5t47.5 -4.5v-183q0 -4 -47.5 -6t-94.5 -0.5t-47 5.5z" />
    <glyph glyph-name="perthousand" unicode="&#x2030;" horiz-adv-x="1006" 
d="M953 184q0 -94 -42.5 -143t-107.5 -49t-103 38q-38 -38 -97 -38q-69 0 -112 47.5t-43 144.5q0 96 42 144.5t111 48.5q60 0 98 -38q38 38 102 38q66 0 109 -49t43 -144zM103 66l475 636q15 13 40.5 4t45 -33t8.5 -39l-475 -636q-15 -13 -40.5 -3.5t-45 33t-8.5 38.5z
M340 518q0 -94 -42.5 -143t-107.5 -49q-69 0 -112 47.5t-43 144.5q0 96 42 144.5t111 48.5q66 0 109 -49t43 -144zM235 519q0 65 -47 65t-47 -65q0 -31 13 -47t34 -16t34 16t13 47zM601 250q-47 0 -47 -65q0 -31 13 -47t34 -16q46 0 47 62v7q-2 29 -15 44t-32 15zM848 185
q0 65 -47 65t-47 -65q0 -31 13 -47t34 -16t34 16t13 47z" />
    <glyph glyph-name="guilsinglleft" unicode="&#x2039;" horiz-adv-x="497" 
d="M273 29l-174 207q-21 21 4 46l168 197q13 13 39.5 -2.5t41.5 -41t1 -38.5l-132 -142l134 -144q14 -12 -1 -38t-41.5 -41.5t-39.5 -2.5z" />
    <glyph glyph-name="guilsinglright" unicode="&#x203a;" horiz-adv-x="443" 
d="M352 236l-174 -207q-14 -14 -40 1.5t-41 42t-1 38.5l134 144l-132 142q-14 13 1 38.5t41 41t40 2.5l168 -197q25 -25 4 -46z" />
    <glyph glyph-name="fraction" unicode="&#x2044;" horiz-adv-x="313" 
d="M-82 108l328 570q5 10 19 10.5t30 -6.5t29.5 -17t20 -23t1.5 -23l-328 -570q-6 -9 -20.5 -9.5t-30 6.5t-29.5 17t-20 22.5t0 22.5z" />
    <glyph glyph-name="Euro" unicode="&#x20ac;" horiz-adv-x="574" 
d="M532 634q0 -20 -12 -57.5t-29.5 -65.5t-29.5 -20q-29 21 -96 21q-89 0 -125 -70h178q14 0 19.5 -16t0 -32t-19.5 -16h-191q0 -36 2 -46h189q14 0 20.5 -16t0.5 -32t-21 -16h-171q50 -78 133 -78q24 0 53 7.5t44 18.5q8 8 24.5 -20t29.5 -65t13 -54q0 -39 -56 -62
t-133 -23q-128 0 -214.5 97t-86.5 263q0 165 85.5 260.5t217.5 95.5q69 0 122 -20.5t53 -53.5z" />
    <glyph glyph-name="afii61352" unicode="&#x2116;" horiz-adv-x="922" 
d="M437 9l-218 391v-396q0 -6 -42.5 -8t-84.5 1t-42 9v683q0 15 81.5 14t87.5 -13l213 -402v404q0 10 83 10t83 -10v-686q0 -8 -37.5 -11t-77.5 1t-46 13zM657 570q0 59 30 92.5t82 33.5q51 0 81.5 -33.5t30.5 -92.5t-30.5 -92.5t-81.5 -33.5q-52 0 -82 33.5t-30 92.5z
M727 570q0 -69 42 -69q18 0 31.5 16t13.5 53q0 71 -45 71q-42 0 -42 -71zM889 354h-244q-6 0 -6.5 25t6.5 25h244q5 0 5.5 -25t-5.5 -25z" />
    <glyph glyph-name="trademark" unicode="&#x2122;" horiz-adv-x="803" 
d="M239 588v-238q0 -15 -59.5 -16.5t-59.5 16.5v238h-48q-19 0 -18.5 55.5t18.5 55.5h213q20 0 20 -55.5t-20 -55.5h-46zM627 352l-8 158l-41 -163q-4 -12 -44 -13t-44 13l-42 165l-7 -161q0 -16 -58 -17.5t-58 17.5l16 329q3 24 71.5 23.5t75.5 -16.5l46 -156l40 151
q11 24 80 21t75 -23l16 -327q0 -17 -58 -18.5t-60 17.5z" />
    <glyph glyph-name="minus" unicode="&#x2212;" horiz-adv-x="603" 
d="M492 190h-395q-18 0 -26 29t0 58t26 29h395q18 0 26 -29t0 -58t-26 -29z" />
    <glyph glyph-name="fi" unicode="&#xfb01;" horiz-adv-x="648" 
d="M85 367h-49q-16 0 -15 66.5t15 66.5h49v22q0 105 42.5 146t120.5 41q50 0 77.5 -15.5t27.5 -38.5q0 -20 -6 -44t-11.5 -37.5t-6.5 -14.5q-30 14 -56 14q-21 0 -29.5 -11.5t-8.5 -40.5v-21h290q38 0 38 -27v-467q0 -5 -45.5 -7t-91.5 -0.5t-46 6.5v361h-128v-354
q0 -12 -83.5 -12t-83.5 12v355zM380 558v141q0 6 46 8.5t92.5 1t46.5 -5.5v-147q0 -4 -46.5 -5.5t-92.5 1t-46 6.5z" />
    <glyph glyph-name="fl" unicode="&#xfb02;" horiz-adv-x="647" 
d="M84 367h-49q-15 0 -15 66.5t15 66.5h49v22q0 105 42.5 146t120.5 41q50 0 77.5 -15.5t27.5 -38.5q0 -20 -6 -44t-11.5 -37.5t-6.5 -14.5q-30 14 -56 14q-21 0 -29.5 -11.5t-8.5 -40.5v-21h146v199q0 6 46 8.5t91.5 1t45.5 -5.5v-697q0 -5 -45.5 -7t-91.5 -0.5t-46 6.5
v361h-129v-354q0 -12 -83.5 -12t-83.5 12v355z" />
    <glyph glyph-name="CR" horiz-adv-x="199" 
 />
    </font>
</defs>
</svg>
